вход на сайт

Имя пользователя :
Пароль :

Восстановление пароля Регистрация
Братья / Brothers (Джим Шеридан, Триллер, драма, военный, 2009) [BDRip-AVC, Профессиональный (многоголосый, закадровый) + Авторский (одноголосый закадровый) + Оригинал + Sub]
Рейтинг:
(голосов: 1)



[img]{THEME}/images/logopost.png[/img]



Братья / Brothers
«Если бы ты знала, через что я прошел, чтобы вернуться к тебе.»

Год выпуска: 2010
Страна: США
Производство: Michael De Luca Productions
Жанр: триллер, драма, военный

Режиссёр: Джим Шеридан
В ролях: Джейк Джилленхол, Натали Портман, Тоби Магуайр, Клифтон Коллинз мл., Бэйли Мэдисон, Сэм Шепард, Мэр Уиннингэм, Тейлор Джир, Патрик Флюгер, Дженни Вэйд, Кэри Маллиган, Этан Сапли

Перевод: Профессиональный (многоголосый, закадровый) (CP-Digital) + Авторский (одноголосый закадровый) (Ю.Немахов) + Оригинал
Субтитры: Русские, Английские

Описание: Два брата… Они так не похожи друг на друга. Старший, Сэм — бравый офицер, любящий муж и отец. А младший, Томми, мечется по жизни, словно ходит по лезвию бритвы. Уезжая добровольцем на войну в Афганистан, Сэм просит Томми позаботиться о детях и жене Грейс. Проходит время, от Сэма нет вестей. Его считают без вести пропавшим. Томми, как может, утешает Грейс. Незаметно между ними вспыхивает чувство. Но однажды Сэм возвращается…
"Награды и премии" ▼Золотой глобус, 2010 год
Номинации (2):
* Лучшая мужская роль (драма) (Тоби Магуайр)
* Лучшая песня — «Winter»

Сатурн, 2010 год
Номинации (4):
* Лучший молодой актер/актриса (Бэйли Мэдисон)
* Лучший актер (Тоби Магуайр)
* Лучшая актриса (Натали Портман)
* Лучший приключенческий фильм, боевик или триллер


Автор рипа : zhutky

Качество: BDRip-AVC => BD-Remux
Продолжительность: 01:44:37 час.

Формат: MKV
Видео кодек: AVC
Аудио кодек: AC3
Видео: 1280x534 (2.35:1), 23,976 fps, AVC ~2 638 kbps, 0.161 bit/pixel
Аудио: 48 kHz, AC3, 3/2 (L,C,R,l,r) + LFE ch, ~448 kbps| Russian (MVO)
Аудио: 48 kHz, AC3, 3/2 (L,C,R,l,r) + LFE ch, ~448 kbps| Russian (AVO)
Аудио: 48 kHz, AC3, 3/2 (L,C,R,l,r) + LFE ch, ~448 kbps| English

Премьера (мир): 3 декабря 2009
Премьера (РФ): 5 августа 2010, «Парадиз»
Mediainfo ▼General
Complete name : D:VIDEOBrothers.2009.BDRip-AVC.2xRus.Eng.mkv
Format : Matroska
File size : 2.91 GiB
Duration : 1h 44mn
Overall bit rate : 3 982 Kbps
Encoded date : UTC 2010-09-23 19:53:08
Writing application : mkvmerge v3.3.0 (Language) built on Mar 24 2010 14:59:24
Writing library : libebml v0.8.0 + libmatroska v0.9.0
Video
ID : 1
Format : AVC
Format/Info : Advanced Video Codec
Format profile : [email protected]
Format settings, CABAC : Yes
Format settings, ReFrames : 8 frames
Muxing mode : Container [email protected]
Codec ID : V_MPEG4/ISO/AVC
Duration : 1h 44mn
Bit rate : 2 638 Kbps
Width : 1 280 pixels
Height : 534 pixels
Display aspect ratio : 2.35:1
Frame rate : 23.976 fps
Color space : YUV
Chroma subsampling : 4:2:0
Bit depth : 8 bits
Scan type : Progressive
Bits/(Pixel*Frame) : 0.161
Stream size : 1.87 GiB (64%)
Title : Brothers
Writing library : x264 core 105 r1722 01e9f8c
Encoding settings : cabac=1 / ref=8 / deblock=1:-2:-1 / analyse=0x3:0x133 / me=umh / subme=9 / psy=1 / psy_rd=1.00:0.10 / mixed_ref=1 / me_range=24 / chroma_me=0 / trellis=2 / 8x8dct=1 / cqm=0 / deadzone=21,11 / fast_pskip=0 / chroma_qp_offset=-3 / threads=3 / sliced_threads=0 / nr=0 / decimate=0 / interlaced=0 / constrained_intra=0 / bframes=8 / b_pyramid=2 / b_adapt=2 / b_bias=0 / direct=3 / weightb=1 / open_gop=0 / weightp=2 / keyint=250 / keyint_min=23 / scenecut=40 / intra_refresh=0 / rc_lookahead=80 / rc=2pass / mbtree=1 / bitrate=2638 / ratetol=1.0 / qcomp=0.65 / qpmin=10 / qpmax=51 / qpstep=4 / cplxblur=20.0 / qblur=0.5 / ip_ratio=1.40 / aq=2:0.90
Language : English
Audio #1
ID : 2
Format : AC-3
Format/Info : Audio Coding 3
Mode extension : CM (complete main)
Codec ID : A_AC3
Duration : 1h 44mn
Bit rate mode : Constant
Bit rate : 448 Kbps
Channel(s) : 6 channels
Channel positions : Front: L C R, Side: L R, LFE
Sampling rate : 48.0 KHz
Bit depth : 16 bits
Stream size : 335 MiB (11%)
Title : Многоголосый (R5)
Language : Russian
Audio #2
ID :
7fb9955e2811a9e3faccb8105f1e6b30939a3782Братья / Brothers (Джим Шеридан, Триллер, драма, военный, 2009) [BDRip-AVC, Профессиональный (многоголосый, закадровый) + Авторский (одноголосый закадровый) + Оригинал + Sub] Братья / Brothers (Джим Шеридан, Триллер, драма, военный, 2009) [BDRip-AVC, Профессиональный (многоголосый, закадровый) + Авторский (одноголосый закадровый) + Оригинал + Sub] " />

Аплоадер: Админ, дата: 17-04-2012, 16:07, торрент скачан: 359 раз

Понравилась раздача? Посмотрите эти:
  • Цельнометаллическая оболочка / Full Metal Jacket (Стэнли Кубрик, драма, вое ...
  • Обряд / The Rite (Микаэль Хафстрем, ужасы, триллер, драма, 2011) [BDRip-AVC ...
  • Братья / Brothers (Джим Шеридан, Триллер, драма, военный, 2009) [BDRip-AVC, ...
  • Братья / Brothers (Джим Шеридан, Триллер, драма, военный, 2009) [BDRip-AVC, ...
  • Вальгалла: Сага о викинге / Valhalla Rising (Николас Виндинг Рёфн, боевик, ...
  • Пир / Feast (Джон Гулажер, ужасы, боевик, триллер, комедия, 2005) [BDRip-AV ...
  • Апокалипсис сегодня / Apocalypse Now (Френсис Форд Коппола / Francis Ford C ...
  • Повторяющие / Repeaters (Карл Бессай, фантастика, боевик, триллер, драма, к ...
  • Леон [2-в-1] / Léon [2-in-1] (Люк Бессон, триллер, драма, криминал, 1994) [ ...
  • Охота за "Красным Октябрём" / The Hunt for "Red October" (Джон МакТирнан, б ...
  • Любимые / The Loved Ones (Шон Бирн, ужасы, триллер, драма, 2009) [BDRip-AVC ...
  • Роб Рой / Rob Roy (Майкл Кейтон-Джонс, боевик, драма, мелодрама, 1995) [BDR ...
  • Красавчик Джонни / Johnny Handsome (Уолтер Хилл, Триллер, драма, криминал, ...
  • Китайский квартал / Chinatown (Роман Полански, Триллер, драма, криминал, де ...
  • Викинги / Outlander (Ховард МакКейн, Фантастика, боевик, приключения, 2008) ...
  • Братья / Brothers (Джим Шеридан /Jim Sheridan/ , Триллер, Драма, Военный, 2 ...
  • Братья / Brothers (Джим Шеридан, Триллер, драма, военный, 2009) [HDRip-AVC ...
  • Братья / Brothers (Джим Шеридан, триллер, драма, военный,, 2009) [HDRip, Пр ...
  • Братья / Brothers (Джим Шеридан, триллер, драма, военный, 2009) [HDRip, Про ...
  • Братья / Brothers (Джим Шеридан, триллер, драма, военный, 2009) [BDRip, Про ...
  • Информация
    Посетители, находящиеся в группе Гости, не могут оставлять комментарии к данной публикации.