вход на сайт

Имя пользователя :
Пароль :

Восстановление пароля Регистрация
Любит - не любит... / Homecoming (Морган Дж. Фриман, триллер, 2009) [DVDRip, профессиональный (многоголосый, закадровый)]
Рейтинг:
(голосов: 1)



[img]{THEME}/images/logopost.png[/img]



Любит - не любит... / Homecoming
●Год выпуска: 2009
●Страна: США
●Производство: Animus Films
●Жанр: триллер
●Режиссёр: Морган Дж. Фриман / Morgan J. Freeman
●В ролях: Миша Бартон, Мэтт Лонг, Джессика Строуп, Майкл Лэндис, Аллен Уильямсон, Джошуа Риз, Джои Форгиони, Алекс Хупер, Берди Белл
●Перевод: профессиональный (многоголосый)
●Субтитры: нет
●Описание: Спустя некоторое время в свой родной городок возвращается красавчик бывшая звезда школьной футбольной команды — Майк. Но он приезжает не один. Вместе с ним его новая гелфренд — богатая и миловидная девушка из Чикаго. Больше всех потрясена этой новостью бывшая подруга Майка. Девушка все еще не может забыть их школьный роман и задумывает отомстить ему…
●IMDB: 5.10 (1937)
●КиноПоиск: 5.927 (1362)
●Качество: DVDRip
●Продолжительность: 01:31:25 час.
●Media Info ▼Text General
Format : AVI
Format/Info : Audio Video Interleave
File size : 1.37 GiB
Duration : 1h 31mn
Overall bit rate : 2 138 Kbps
Movie name : Ljubit.ne.ljubit.2009.P.DVDRip.[4epHa9 PaketHica CORPORATION]
Director : 4epHa9 PaketHica CORPORATION
Writing application : VirtualDubMod 1.5.10.2 (build 2540/release)
Video #0
ID : 0
Format : MPEG-4 Visual
Format settings, BVOP : No
Format settings, QPel : No
Format settings, GMC : No warppoints
Format settings, Matrix : Default (H.263)
Codec ID : DX50
Codec ID/Hint : DivX 5
Duration : 1h 31mn
Bit rate : 1 680 Kbps
Width : 720 pixels
Height : 400 pixels
Display aspect ratio : 16:9
Frame rate : 25.000 fps
Resolution : 24 bits
Colorimetry : 4:2:0
Scan type : Progressive
Bits/(Pixel*Frame) : 0.233
Stream size : 1.07 GiB (79%)
Writing library : DivX 6.8.4
Audio #1
ID : 1
Format : AC-3
Format/Info : Audio Coding 3
Codec ID : 2000
Duration : 1h 31mn
Bit rate mode : Constant
Bit rate : 448 Kbps
Channel(s) : 6 channels
Channel positions : Front: L C R, Surround: L R, LFE
Sampling rate : 48.0 KHz
Stream size : 293 MiB (21%)
Alignment : Split accross interleaves
Interleave, duration : 40 ms (1.00 video frame)
Interleave, preload duration : 500 ms
●Формат: AVI
●Видео кодек: DivX
●Аудио кодек: AC3
●Видео: 720x400 (1.80:1), 25 fps, DivX Codec 6.9.2, ~1680 kbps avg, 0.23 bit/pixel
●Аудио: 48 kHz, AC3 Dolby Digital, 6 ch, ~448 Kbps avg





a6ae0dfc8408ba9c8010c2990c570797f54cc52eЛюбит - не любит... / Homecoming (Морган Дж. Фриман, триллер, 2009) [DVDRip, профессиональный (многоголосый, закадровый)] Любит - не любит... / Homecoming (Морган Дж. Фриман, триллер, 2009) [DVDRip, профессиональный (многоголосый, закадровый)] " />

Аплоадер: Админ, дата: 15-04-2012, 15:58, торрент скачан: 359 раз

Понравилась раздача? Посмотрите эти:
  • Орудие смерти / A-i-deul... (Ли Гю Ман, Триллер, криминал, 2011) [DVDRip, П ...
  • Мужество / Wymyk (Грег Зглински, драма, 2011) [DVDRip, Любительский (одного ...
  • Звук моего голоса / Sound of My Voice (Зал Батманглидж, триллер, драма, 201 ...
  • [EN] Команда: На пути Аллаха / Takiye: Allah yolunda (2010, Бен Вербонг, тр ...
  • Плохая актриса / Bad Actress (Роберт Ли Кинг, комедия, 2011) [DVDRip, Профе ...
  • Захват / Carjacked (Джон Бонито, триллер, 2011)[BDRip, Профессиональный (мн ...
  • Формула 1 2011 / Этап 17 из 19 / Гран-При Индии / Гонка / Спорт 1 [30.10.20 ...
  • Любит - не любит... / Homecoming (Морган Дж. Фриман, триллер, драма, 2009) ...
  • В поисках древней гробницы / Das Jesus Video (Себастьян Нимэнн, фантастика, ...
  • Маленький Николя / Le Petit Nicolas ( Лорен Тирар,комедия, семейный,2009 ) ...
  • Неделя в NBA с В.Гомельским / НТВ+ [28.06.2011, SD, XviD, RU, SAT]
  • Вскрытие инопланетянина/Alien Autopsy (Джонни Кэмпбелл, Комедия, фантастика ...
  • Хитрая ворона (Галина Баринова, короткометражный мультфильм, 1980) [DVDRip, ...
  • Джентльмен в коричневом / The Man in the Brown Suit (Алан Гринт, детектив, ...
  • Похищение / Rapt / Lösegeld (Люка Бельво, триллер, 2009) [HDRip, профессион ...
  • Полусвет / Half Light (Крэйг Розенберг, Ужасы, триллер, драма, детектив, 20 ...
  • Супершторм в Сиэтле / Seattle Superstorm (Джейсон Бурк, фантастика, боевик ...
  • Инкубус / Inkubus (Гленн Чиано, Ужасы, 2011) [DVDRip, Профессиональный (мно ...
  • Любит - не любит... / Homecoming (Морган Дж. Фриман, триллер, 2009) [HDRip, ...
  • Искажение / Skew (Сейв Челенз, ужасы, триллер, 2011) [HDRip, Профессиональн ...
  • Информация
    Посетители, находящиеся в группе Гости, не могут оставлять комментарии к данной публикации.