вход на сайт

Имя пользователя :
Пароль :

Восстановление пароля Регистрация
Лица в толпе / Faces in the Crowd (Жюльен Манья, триллер, драма, 2011) [BDRip-AVC, Профессиональный (многоголосый закадровый)]
Рейтинг:
(голосов: 1)



[img]{THEME}/images/logopost.png[/img]



Лица в толпе / Faces in the Crowd
«She saw the killers face, but it keeps changing...»

Год выпуска: 2011
Страна: Канада Франция
Производство: Forecast Pictures
Жанр: триллер, драма

Режиссёр: Жюльен Манья
В ролях: Милла Йовович, Сара Уэйн Кэллис, Джулиан МакМэхон, Майкл Шэнкс, Адам Харингтон, Сандрин Холт, Валентина Варгас, Марианна Фэйтфулл, Энтони Лемке, Нельс Леннарсо

Перевод: Профессиональный (многоголосый закадровый)
Субтитры: Отсутствуют

Описание: Сюжет повествует о страшной трагедии, которая произошла в жизни молодой женщины. После нападения серийного убийцы она чудом осталась жива. Однако сложная травма головы сделала её фактически беспомощной. Она совсем не запоминает лица людей, и как только они исчезают из ее поля зрения, они стираются из ее памяти навсегда.



Качество: BDRip-AVC (Исх. BDRemux)
Продолжительность: 01:42:32 час.

Формат: MKV
Видео кодек: AVC
Аудио кодек: AC3
Видео: 1044x436 (2.35:1), 23.976 fps, AVC, ~1647 kbps, 0.151 bit/pixel
Аудио: 48 kHz, AC3, 3/2 (L,C,R,l,r) + LFE ch, ~384 kbps| Russian (MVO)

Премьера (мир): 16 сентября 2011
Mediainfo ▼General
Unique ID : 214171437408909445950306778496455084049 (0xA11FEB1FCA40244D854DE5D1A0270811)
Complete name : E:DownloadsLica v tolpe.chopper887.mkv
Format : Matroska
File size : 1.45 GiB
Duration : 1h 42mn
Overall bit rate : 2 031 Kbps
Movie name : Lica v tolpe.chopper887
Encoded date : UTC 2012-01-25 03:22:10
Writing application : mkvmerge v4.8.0 (I Got The...) сборка от May 24 2011 03:12:58
Writing library : libebml v1.2.0 + libmatroska v1.1.0
Video
ID : 1
Format : AVC
Format/Info : Advanced Video Codec
Format profile : [email protected]
Format settings, CABAC : Yes
Format settings, ReFrames : 9 frames
Codec ID : V_MPEG4/ISO/AVC
Duration : 1h 42mn
Bit rate : 1 647 Kbps
Width : 1 044 pixels
Height : 436 pixels
Display aspect ratio : 2.35:1
Frame rate : 23.976 fps
Color space : YUV
Chroma subsampling : 4:2:0
Bit depth : 8 bits
Scan type : Progressive
Bits/(Pixel*Frame) : 0.151
Stream size : 1.15 GiB (79%)
Title : Lica v tolpe.chopper887
Writing library : x264 core 116 r2074 2641b9e
Encoding settings : cabac=1 / ref=9 / deblock=1:-2:-1 / analyse=0x3:0x133 / me=umh / subme=11 / psy=1 / psy_rd=1.00:0.10 / mixed_ref=1 / me_range=32 / chroma_me=1 / trellis=2 / 8x8dct=1 / cqm=0 / deadzone=21,11 / fast_pskip=0 / chroma_qp_offset=-3 / threads=12 / sliced_threads=0 / nr=0 / decimate=1 / interlaced=0 / bluray_compat=0 / constrained_intra=0 / bframes=7 / b_pyramid=2 / b_adapt=2 / b_bias=0 / direct=3 / weightb=1 / open_gop=0 / weightp=2 / keyint=250 / keyint_min=23 / scenecut=40 / intra_refresh=0 / rc_lookahead=80 / rc=2pass / mbtree=1 / bitrate=1647 / ratetol=1.0 / qcomp=0.60 / qpmin=0 / qpmax=69 / qpstep=4 / cplxblur=20.0 / qblur=0.5 / ip_ratio=1.40 / aq=1:1.00
Language : English
Audio
ID : 2
Format : AC-3
Format/Info : Audio Coding 3
Mode extension : CM (complete main)
Codec ID : A_AC3
Duration : 1h 42mn
Bit rate mode : Constant
Bit rate : 384 Kbps
Channel(s) : 6 channels
Channel positions : Front: L C R, Side: L R, LFE
Sampling rate : 48.0 KHz
Bit depth : 16 bits
Compression mode : Lossy
Stream size : 282 MiB (19%)
Title : MVO


29051486f81bfe7a147f8fc0a2ea164db489d284Лица в толпе / Faces in the Crowd (Жюльен Манья, триллер, драма, 2011) [BDRip-AVC, Профессиональный (многоголосый закадровый)] Лица в толпе / Faces in the Crowd (Жюльен Манья, триллер, драма, 2011) [BDRip-AVC, Профессиональный (многоголосый закадровый)] " />

Аплоадер: Админ, дата: 9-04-2012, 07:03, торрент скачан: 359 раз

Понравилась раздача? Посмотрите эти:
  • FLO / NRG [2012, Pop, Dance, MasterRip]
  • Верное дельце / Une pure affaire (Александр Коффре, Боевик, Комедия, Кримин ...
  • Коллекционер / The Collector (Уильям Уайлер, Триллер, драма, 1965) [BDRip-A ...
  • Смерть на похоронах / Death at a Funeral (Нил ЛаБут, комедия, 2010) [BDRip ...
  • Лица в толпе / Faces in the Crowd (Жюльен Манья, триллер, драма, 2011) [480 ...
  • Отдел 13 / Diamant 13 (Гайллз Бэхат, Боевик, триллер, криминал, 2009) [BDRi ...
  • Конец света / Fin (Хорхе Торрегросса, триллер, 2012) [BDRip-AVC, Профессион ...
  • Убить по расписанию / Ticking Clock (Эрни Барбараш, фантастика, боевик, три ...
  • Шелуха / Husk (Бретт Симмонс, ужасы, триллер, 2011) [BDRip 720p, Профессион ...
  • Аноним / Anonymous (Роланд Эммерих, триллер, драма, 2011) [BDRip-AVC, Профе ...
  • Голодный кролик атакует / Seeking Justice (Роджер Дональдсон / Roger Donald ...
  • Хранитель времени / Hugo (Мартин Скорсезе, Драма, 2011) [BDRip-AVC, Професс ...
  • Мартовские иды / The Ides of March (Джордж Клуни / George Clooney, драма, 2 ...
  • Похищенная / A Lonely Place to Die (Джулиан Джилби, триллер, криминал, прик ...
  • Воин / Warrior (Гэвин О’Коннор, боевик, драма, спорт, 2011) [HDRip-AVC, Про ...
  • Обряд / The Rite (Микаэль Хафстрем, ужасы, триллер, драма, 2011) [BDRip-AVC ...
  • Курьер / The Courier (Хани Абу-Ассад, боевик, триллер, криминал, 2011) [HDR ...
  • Обряд / The Rite (Микаэль Хафстрем, ужасы, триллер, драма, 2011) [BDRip-AVC ...
  • Поворот не туда 4 / Wrong Turn 4 (Деклан О’Брайэн, ужасы, боевик, детектив, ...
  • Похищенная / A Lonely Place to Die (Джулиан Джилби, триллер, криминал, прик ...
  • Mylene Farmer / Du Temps [2011, Pop, HDTVRip]
  • Mylene Farmer / Bleu Noir [2011, Pop, HDTVRip]
  • Дом грёз / Dream House (Джим Шеридан / Jim Sheridan, триллер, драма, детект ...
  • Лица в толпе / Faces in the Crowd (Жюльен Манья, ужасы, триллер , 2011) [HD ...
  • Лица в толпе / Faces in the Crowd (Жюльен Манья, триллер, драма, 2011) [HDR ...
  • Информация
    Посетители, находящиеся в группе Гости, не могут оставлять комментарии к данной публикации.