вход на сайт

Имя пользователя :
Пароль :

Восстановление пароля Регистрация
Дорога / The Road (Джон Хиллкоут, Драма, триллер, приключения, 2009) [BDRip-AVC, Профессиональный (многоголосый, закадровый) + Оригинал + SUB]
Рейтинг:
(голосов: 1)



[img]{THEME}/images/logopost.png[/img]



Дорога / The Road
«В одно мгновение мир изменился навсегда»

Год выпуска: 2009
Страна: США
Производство: Nick Wechsler Productions, Dimension Films, Chockstone Pictures
Жанр: триллер, драма, приключения

Режиссёр: Джон Хиллкоут / John Hillcoat
В ролях: Вигго Мортенсен, Коди Смит-МакФи, Роберт Дювалл, Гай Пирс, Молли Паркер, Майкл К. Уильямс, Гаррет Диллахант, Шарлиз Терон, Боб Дженнингс, Аньес Херрманн

Перевод: Профессиональный (многоголосый, закадровый) + Оригинал
Субтитры: Русские, Английские

Описание: На Землю обрушились чудовищные катаклизмы, цивилизация уничтожена, как и практически вся жизнь на планете. Оставшееся человечество разделилось на каннибалов и их добычу. По дороге, покрытой пеплом, идут отец с сыном. Они хотят добраться до теплых мест, чтобы выжить…
"Знаете ли вы, что..." ▼Кормак Маккарти получил Пулитцеровскую премию за роман «The Road» («Дорога») в 2007 году.

Шарлиз Терон, сыгравшая роль жены главного героя, в интервью призналась, что согласилась сниматься в фильме во многом благодаря тому, что ей очень понравилась книга Кормака МакКарти.

Большинство сцен ленты отсняли в Пенсильвании.

Первоначально на роль отца мальчика планировалось взять Брэда Питта, но актер отклонил предложение. Роль досталась Вигго Мортенсену.


Качество: BDRip-AVC => BD-Remux
Продолжительность: 01:51:20 час.

Формат: MKV
Видео кодек: AVC
Аудио кодек: AC3 Dolby Digital
Видео: 1200x510 (2.35:1), 23.976 fps, AVC ~1 776 kbps avg, 0.121 bit/pixel
Аудио: 48 kHz, AC3 Dolby Digital, 3/2 (L,C,R,l,r) + LFE ch, ~448 kbps| Russian (DUB)
Аудио: 48 kHz, AC3 Dolby Digital, 3/2 (L,C,R,l,r) + LFE ch, ~448 kbps| English

Премьера (мир): 3 сентября 2009
Премьера (РФ): 20 мая 2010, «Каскад»
Mediainfo ▼General
Complete name : D:VIDEOThe.Road.2009.BDRip-AVC.Rus.Eng.mkv
Format : Matroska
File size : 2.12 GiB
Duration : 1h 51mn
Overall bit rate : 2 726 Kbps
Encoded date : UTC 2010-11-08 17:00:33
Writing application : mkvmerge v3.3.0 (Language) built on Mar 24 2010 14:59:24
Writing library : libebml v0.8.0 + libmatroska v0.9.0
Video
ID : 1
Format : AVC
Format/Info : Advanced Video Codec
Format profile : [email protected]
Format settings, CABAC : Yes
Format settings, ReFrames : 11 frames
Muxing mode : Container [email protected]
Codec ID : V_MPEG4/ISO/AVC
Duration : 1h 51mn
Bit rate : 1 776 Kbps
Width : 1 200 pixels
Height : 510 pixels
Display aspect ratio : 2.35:1
Frame rate : 23.976 fps
Color space : YUV
Chroma subsampling : 4:2:0
Bit depth : 8 bits
Scan type : Progressive
Bits/(Pixel*Frame) : 0.121
Stream size : 1.38 GiB (65%)
Title : The Road
Writing library : x264 core 107 r1745 4785e8e
Encoding settings : cabac=1 / ref=11 / deblock=1:-2:-1 / analyse=0x3:0x133 / me=umh / subme=10 / psy=1 / psy_rd=1.00:0.10 / mixed_ref=1 / me_range=32 / chroma_me=0 / trellis=2 / 8x8dct=1 / cqm=0 / deadzone=21,11 / fast_pskip=0 / chroma_qp_offset=-3 / threads=3 / sliced_threads=0 / nr=0 / decimate=0 / interlaced=0 / constrained_intra=0 / bframes=13 / b_pyramid=2 / b_adapt=2 / b_bias=0 / direct=3 / weightb=1 / open_gop=0 / weightp=2 / keyint=250 / keyint_min=23 / scenecut=40 / intra_refresh=0 / rc_lookahead=40 / rc=crf / mbtree=0 / crf=18.9 / qcomp=0.70 / qpmin=10 / qpmax=51 / qpstep=4 / vbv_maxrate=25000 / vbv_bufsize=31250 / crf_max=0.0 / ip_ratio=1.40 / pb_ratio=1.30 / aq=2:1.00 / nal_hrd=none
Language : English
Audio #1
ID : 2
Format : AC-3
Format/Info : Audio Coding 3
Mode extension : CM (complete main)
Codec ID : A_AC3
Duration : 1h 51mn
Bit rate mode : Constant
Bit rate : 448 Kbps
Channel(s) : 6 channels
Channel positions : Front: L C R, Side: L R, LFE
Sampling rate : 48.0 KHz
Bit depth : 16 bits
Stream size : 357 MiB (16%)
Title : Профессиональный (многоголосый / R5)
Language : Russian
Audio #2
ID : 3
Format : AC-3
07993e2cee2056a96b02d568c9de42f485ab78dfДорога / The Road (Джон Хиллкоут, Драма, триллер, приключения, 2009) [BDRip-AVC, Профессиональный (многоголосый, закадровый) + Оригинал + SUB] Дорога / The Road (Джон Хиллкоут, Драма, триллер, приключения, 2009) [BDRip-AVC, Профессиональный (многоголосый, закадровый) + Оригинал + SUB] " />

Аплоадер: Админ, дата: 7-04-2012, 11:46, торрент скачан: 359 раз

Понравилась раздача? Посмотрите эти:
  • Дорога / The Road (Джон Хиллкоут, драма, триллер, приключения, 2009) [BDRip ...
  • Отдел 13 / Diamant 13 (Гайллз Бэхат, Боевик, триллер, криминал, 2009) [BDRi ...
  • Убить по расписанию / Ticking Clock (Эрни Барбараш, фантастика, боевик, три ...
  • Дорога / The Road (Джон Хиллкоут / John Hillcoat, триллер, драма, приключен ...
  • Дорога / The Road (Джон Хиллкоут, Драма, триллер, приключения, 2009) [BDRip ...
  • Мать / Madeo (Джун-хо Бон, триллер, драма, криминал, детектив, 2009) [BDRip ...
  • Мартовские иды / The Ides of March (Джордж Клуни / George Clooney, драма, 2 ...
  • Персонаж / Stranger Than Fiction (Марк Форстер, Комедия, драма, фантастика, ...
  • Дорога / The Road (Джон Хиллкоут / John Hillcoat, драма, постапокалипсис , ...
  • Джона Хекс / Jonah Hex (Джимми Хейуорд, боевик, триллер, драма, вестерн, 20 ...
  • Братья / Brothers (Джим Шеридан, Триллер, драма, военный, 2009) [BDRip-AVC, ...
  • Вальгалла: Сага о викинге / Valhalla Rising (Николас Виндинг Рёфн, боевик, ...
  • Второй шанс / Gridiron Gang (Фил Джоану / Phil Joanou, драма, криминал, спо ...
  • Повторяющие / Repeaters (Карл Бессай, фантастика, боевик, триллер, драма, к ...
  • Охота за "Красным Октябрём" / The Hunt for "Red October" (Джон МакТирнан, б ...
  • Дорога / The Road (Джон Хиллкоут, Триллер, драма, приключения, 2009) [BDRip ...
  • Похищенная / A Lonely Place to Die (Джулиан Джилби, триллер, криминал, прик ...
  • Китайский квартал / Chinatown (Роман Полански, Триллер, драма, криминал, де ...
  • На Дороге / On The Road (Уолтер Саллес, Драма, приключения, 2012) [BDRip 72 ...
  • На Дороге / On The Road (Уолтер Саллес, Драма, приключения, 2012) [BDRip 10 ...
  • Дорога / The Road (Джон Хиллкоут / John Hillcoat, триллер, драма, приключен ...
  • Дорога / The Road (Джон Хиллкоут) (2009, Триллер, драма, приключения) [HDRi ...
  • Дорога / The Road (Джон Хиллкоут, триллер, драма, приключения, 2009) [BDRip ...
  • Футбольные гладиаторы / Ушедшее время / Awaydays (Пэт Холден, драма, кримин ...
  • Дорога / The Road (Джон Хиллкоут, триллер, драма, приключения, 2009) [Blu-r ...
  • Информация
    Посетители, находящиеся в группе Гости, не могут оставлять комментарии к данной публикации.