вход на сайт

Имя пользователя :
Пароль :

Восстановление пароля Регистрация
Неоновая плоть / Carne de neón (Пако Кабезас, триллер, драма, комедия, криминал, 2010) [HDRip-AVC, Профессиональный (многоголосый, закадровый)]
Рейтинг:
(голосов: 1)



[img]{THEME}/images/logopost.png[/img]



Неоновая плоть / Carne de neón


Год выпуска: 2010
Страна: Швеция , Франция , Испания , Аргентина
Производство: Carne de Neón, Film i Väst, Hepp Film
Жанр: триллер, драма, комедия, криминал

Режиссёр: Пако Кабезас
В ролях: Марио Касас,Винсент Ромеро,Лучано Касерес,Макарена Гомес,Дамасо Конде,Ванесса Оливера,Дарио Грандинетти,Бланка Суарез,Антонио де ла Торре,Анхела Молина

Перевод: Профессиональный (многоголосый, закадровый)[Лицензия]
Субтитры: Отсутсвуют

Описание: Рики вырос на улице в окружении проституток и наркоманов, после того как остался один в двенадцатилетнем возрасте. Теперь ему 23 года и он решает открыть бордель, клуб под названием «Хиросима», в качестве подарка матери проститутке, которая вот-вот выйдет из тюрьмы. Рики хочет, чтобы Пура руководила клубом и забыла о своем прошлом продажной женщины. В этом ему помогают многочисленные друзья, порой весьма эксцентричные. Рики пытается пробудить материнские чувства и любовь в душе Пуры, которая бросила его много лет назад. Однако добиться этого оказывается не так просто.





Качество: HDRip-AVC
Продолжительность: 01:41:51

Формат: MKV
Видео кодек: H.264
Аудио кодек: MP3
Видео: 720 x 304 (2.35:1), 25.000 fps, AVC (х264) [email protected], ~ 893 Kbps, 0.163 bit/pixel
Аудио: 48 kHz, MPEG Layer 3, 2 ch, ~128.00 kbps avg

MediaInfo ▼General
Unique ID : 196670871236053847146486806058343622523 (0x93F56E9838D8A70284FDC96CE57C677B)
Complete name : F:Мои релизыВсе релизы 10neonovaja_plot_HDRip-AVC.mkv
Format : Matroska
File size : 745 MiB
Duration : 1h 41mn
Overall bit rate : 1 023 Kbps
Encoded date : UTC 2012-03-16 20:44:00
Writing application : mkvmerge v4.6.0 (Still Crazy After All These Years) сборка от Apr 1 2011 21:01:49
Writing library : libebml v1.2.0 + libmatroska v1.1.0

Video
ID : 1
Format : AVC
Format/Info : Advanced Video Codec
Format profile : [email protected]
Format settings, CABAC : Yes
Format settings, ReFrames : 4 frames
Codec ID : V_MPEG4/ISO/AVC
Duration : 1h 41mn
Bit rate : 893 Kbps
Width : 720 pixels
Height : 304 pixels
Display aspect ratio : 2.35:1
Frame rate : 25.000 fps
Color space : YUV
Chroma subsampling : 4:2:0
Bit depth : 8 bits
Scan type : Progressive
Bits/(Pixel*Frame) : 0.163
Stream size : 637 MiB (85%)
Writing library : x264 core 115 r1937 aa21558
Encoding settings : cabac=1 / ref=3 / deblock=1:-1:-1 / analyse=0x3:0x113 / me=hex / subme=7 / psy=1 / psy_rd=1.00:0.10 / mixed_ref=1 / me_range=16 / chroma_me=1 / trellis=1 / 8x8dct=1 / cqm=0 / deadzone=21,11 / fast_pskip=1 / chroma_qp_offset=-3 / threads=6 / sliced_threads=0 / nr=0 / decimate=1 / interlaced=0 / bluray_compat=0 / constrained_intra=0 / bframes=3 / b_pyramid=2 / b_adapt=1 / b_bias=0 / direct=3 / weightb=1 / open_gop=0 / weightp=2 / keyint=250 / keyint_min=25 / scenecut=40 / intra_refresh=0 / rc_lookahead=40 / rc=2pass / mbtree=1 / bitrate=893 / ratetol=1.0 / qcomp=0.60 / qpmin=0 / qpmax=69 / qpstep=4 / cplxblur=20.0 / qblur=0.5 / ip_ratio=1.40 / aq=1:1.00

Audio
ID : 2
Format : MPEG Audio
Format version : Version 1
Format profile : Layer 3
Mode : Joint stereo
Mode extension : MS Stereo
Codec ID : A_MPEG/L3
Codec ID/Hint : MP3
Duration : 1h 41mn
Bit rate mode : Constant
Bit rate : 128 Kbps
Channel(s) : 2 channels
Sampling rate : 48.0 KHz
Compression mode : Lossy
Stream size : 93.2 MiB (13%)
Writing library : LAME3.98r
Encoding settings : -m j -V 4 -q 2 -lowpass 17 -b 128

Автор рипа: jeenart


7aea38c4914bce99e2d30e6d68ad9ae79ab8ed7fНеоновая плоть / Carne de neón (Пако Кабезас, триллер, драма, комедия, криминал, 2010) [HDRip-AVC, Профессиональный (многоголосый, закадровый)] Неоновая плоть / Carne de neón (Пако Кабезас, триллер, драма, комедия, криминал, 2010) [HDRip-AVC, Профессиональный (многоголосый, закадровый)] " />

Аплоадер: Админ, дата: 24-03-2012, 14:48, торрент скачан: 359 раз

Понравилась раздача? Посмотрите эти:
  • Dev feat. Enrique Iglesias / Naked [2012, Pop, HDRip]
  • Gloria Trevi / No Querias Lastimarme [2013, Latin, Pop, HDRip]
  • FLO / NRG [2012, Pop, Dance, MasterRip]
  • Eminem / Rap God [2013, Rap, HDRip]
  • Brit Smith feat. Will.i.am / Provocative (Explicit) [2013, Hip-Hop, HDRip]
  • Havana Brown / Warrior [2013, Dance, HDRip]
  • Верное дельце / Une pure affaire (Александр Коффре, Боевик, Комедия, Кримин ...
  • America Sierra feat. 3BallMTY / Porque El Amor Manda [2013, Dance, Tribal, ...
  • [Трилогия] От заката до рассвета / [Trilogy] From Dusk Till Dawn (Роберт Ро ...
  • 12 раундов: Перезагрузка / 12 Rounds: Reloaded (Роэль Рейн, боевик, 2013) [ ...
  • Смерть на похоронах / Death at a Funeral (Нил ЛаБут, комедия, 2010) [BDRip ...
  • Большой Лебовский / The Big Lebowski (Джоэл Коэн,Итэн Коэн, комедия, кримин ...
  • Конец света / Fin (Хорхе Торрегросса, триллер, 2012) [BDRip-AVC, Профессион ...
  • Отражение Разбитое зеркало / The Brоken (Шон Эллис , ужасы, фэнтези, трилл ...
  • Мать / Madeo (Джун-хо Бон, триллер, драма, криминал, детектив, 2009) [BDRip ...
  • Папина дочка / College Road Trip (Роджер Камбл, комедия, драма, приключения ...
  • Похищенная / A Lonely Place to Die (Джулиан Джилби, триллер, криминал, прик ...
  • Невидимая сторона / The Blind Side (Джон Ли Хэнкок / John Lee Hancock, драм ...
  • Воин / Warrior (Гэвин О’Коннор, боевик, драма, спорт, 2011) [HDRip-AVC, Про ...
  • Курьер / The Courier (Хани Абу-Ассад, боевик, триллер, криминал, 2011) [HDR ...
  • Хороший парень / The Good Guy (Хулио ДеПьетро, мелодрама, комедия, 2009) [H ...
  • Неоновая плоть / Carne de neon (Пако Кабезас, триллер, драма, комедия, крим ...
  • Mylene Farmer / Du Temps [2011, Pop, HDTVRip]
  • Mylene Farmer / Bleu Noir [2011, Pop, HDTVRip]
  • Неоновая плоть / Carne de neón / Neon Flesh (Пако Кабезас, триллер, драма, ...
  • Информация
    Посетители, находящиеся в группе Гости, не могут оставлять комментарии к данной публикации.