вход на сайт

Имя пользователя :
Пароль :

Восстановление пароля Регистрация
Похищенная / A Lonely Place to Die (Джулиан Джилби, триллер, криминал, приключения, 2011) [BDRip-AVC, Профессиональный (многоголосый закадровый) НТВ+]
Рейтинг:
(голосов: 1)



[img]{THEME}/images/logopost.png[/img]



Похищенная / A Lonely Place to Die


Год выпуска: 2011
Страна: Великобритания
Производство: Carnaby International, Eigerwand Pictures, Molinare Studio
Жанр: триллер, криминал, приключения

Режиссёр: Джулиан Джилби
В ролях: Мелисса Джордж, Карел Роден, Эдвард Спелирс, Имонн Уолкер, Шон Харрис, Алек Ньюман, Кейт Магован, Гарри Суини, Стивен МакКоул, Пол Андерсон

Перевод: Профессиональный (многоголосый закадровый) НТВ+
Субтитры: Отсутствуют

Описание: Пятеро альпинистов совершают восхождение на одну из шотландских возвышенностей. Поднявшись, они обнаруживают юную девочку, которая непонятно как оказалась одна, в палатке, в совершенно дикой местности…Дата премьеры (мир): 12 февраля 2011
Качество: BDRip-AVC
Продолжительность: 01:39:07


Формат: MKV
Видео кодек: x264
Аудио кодек: AC-3
Видео: 1010x430 (2.35:1), 23.976 fps, AVC, ~1716 Kbps, 0.165 bits/pixel
Аудио: 48 kHz, 6 channel (Front: L C R, Side: L R, LFE), 384.00 kbps avg
MediaInfo ▼TextGeneral
Unique ID : 254935502204091135141638385209857004680 (0xBFCACAB0AAC5D793A02A2A0382D7D488)
Complete name : E:DownloadsPohichennaya.1.46.chopper887.mkv
Format : Matroska
Format version : Version 2
File size : 1.45 GiB
Duration : 1h 39mn
Overall bit rate : 2 101 Kbps
Movie name : Pohichennaya.1.46.chopper887
Encoded date : UTC 2012-03-23 10:22:16
Writing application : mkvmerge v4.8.0 (I Got The...) сборка от May 24 2011 03:12:58
Writing library : libebml v1.2.0 + libmatroska v1.1.0

Video
ID : 1
Format : AVC
Format/Info : Advanced Video Codec
Format profile : [email protected]
Format settings, CABAC : Yes
Format settings, ReFrames : 10 frames
Codec ID : V_MPEG4/ISO/AVC
Duration : 1h 39mn
Bit rate : 1 716 Kbps
Width : 1 010 pixels
Height : 430 pixels
Display aspect ratio : 2.35:1
Frame rate : 23.976 fps
Color space : YUV
Chroma subsampling : 4:2:0
Bit depth : 8 bits
Scan type : Progressive
Bits/(Pixel*Frame) : 0.165
Stream size : 1.16 GiB (80%)
Title : Pohichennaya.1.46.chopper887
Writing library : x264 core 120 r2164 da19765
Encoding settings : cabac=1 / ref=10 / deblock=1:-2:-1 / analyse=0x3:0x133 / me=umh / subme=11 / psy=1 / psy_rd=0.95:0.05 / mixed_ref=1 / me_range=32 / chroma_me=1 / trellis=2 / 8x8dct=1 / cqm=0 / deadzone=21,11 / fast_pskip=0 / chroma_qp_offset=-3 / threads=12 / sliced_threads=0 / nr=0 / decimate=1 / interlaced=0 / bluray_compat=0 / constrained_intra=0 / bframes=9 / b_pyramid=2 / b_adapt=2 / b_bias=0 / direct=3 / weightb=1 / open_gop=0 / weightp=2 / keyint=240 / keyint_min=23 / scenecut=40 / intra_refresh=0 / rc_lookahead=80 / rc=2pass / mbtree=1 / bitrate=1716 / ratetol=1.0 / qcomp=0.60 / qpmin=10 / qpmax=51 / qpstep=4 / cplxblur=20.0 / qblur=0.5 / ip_ratio=1.40 / aq=1:1.00
Language : English
Default : Yes
Forced : No

Audio
ID : 2
Format : AC-3
Format/Info : Audio Coding 3
Mode extension : CM (complete main)
Codec ID : A_AC3
Duration : 1h 39mn
Bit rate mode : Constant
Bit rate : 384 Kbps
Channel(s) : 6 channels
Channel positions : Front: L C R, Side: L R, LFE
Sampling rate : 48.0 KHz
Bit depth : 16 bits
Compression mode : Lossy
Delay relative to video : 2s 0ms
Stream size : 272 MiB (18%)
Title : MVO
Default : Yes
Forced : No

d31ba6b148c40e0b28f2a50c743663de9d0a68c9Похищенная / A Lonely Place to Die (Джулиан Джилби, триллер, криминал, приключения, 2011) [BDRip-AVC, Профессиональный (многоголосый закадровый) НТВ+] Похищенная / A Lonely Place to Die (Джулиан Джилби, триллер, криминал, приключения, 2011) [BDRip-AVC, Профессиональный (многоголосый закадровый) НТВ+] " />

Аплоадер: Админ, дата: 23-03-2012, 21:29, торрент скачан: 359 раз

Понравилась раздача? Посмотрите эти:
  • Похищенная / A Lonely Place to Die (Джулиан Джилби, боевик, триллер, кримин ...
  • Погнали! / Getaway (Кортни Соломон, боевик, криминал, 2013) [BDRip 720p, Пр ...
  • Верное дельце / Une pure affaire (Александр Коффре, Боевик, Комедия, Кримин ...
  • Смерть на похоронах / Death at a Funeral (Нил ЛаБут, комедия, 2010) [BDRip ...
  • Отдел 13 / Diamant 13 (Гайллз Бэхат, Боевик, триллер, криминал, 2009) [BDRi ...
  • Гость / The Caller (Мэттью Паркхилл, триллер, детектив, 2011) [BDRip 720p, ...
  • Конец света / Fin (Хорхе Торрегросса, триллер, 2012) [BDRip-AVC, Профессион ...
  • Джекпот / Arme Riddere (Магнус Мартенс, Боевик, комедия, криминал, 2011) [B ...
  • Убить по расписанию / Ticking Clock (Эрни Барбараш, фантастика, боевик, три ...
  • Шелуха / Husk (Бретт Симмонс, ужасы, триллер, 2011) [BDRip 720p, Профессион ...
  • Аноним / Anonymous (Роланд Эммерих, триллер, драма, 2011) [BDRip-AVC, Профе ...
  • Голодный кролик атакует / Seeking Justice (Роджер Дональдсон / Roger Donald ...
  • Хранитель времени / Hugo (Мартин Скорсезе, Драма, 2011) [BDRip-AVC, Професс ...
  • Мартовские иды / The Ides of March (Джордж Клуни / George Clooney, драма, 2 ...
  • Мартовские иды / The Ides of March (Джордж Клуни / George Clooney, драма, 2 ...
  • Похищенная / A Lonely Place to Die (Джулиан Джилби, триллер, криминал, прик ...
  • Курьер / The Courier (Хани Абу-Ассад, боевик, триллер, криминал, 2011) [HDR ...
  • Лица в толпе / Faces in the Crowd (Жюльен Манья, триллер, драма, 2011) [BDR ...
  • Поворот не туда 4 / Wrong Turn 4 (Деклан О’Брайэн, ужасы, боевик, детектив, ...
  • Похищенная / A Lonely Place to Die (Джулиан Джилби, триллер, криминал, прик ...
  • Mylene Farmer / Du Temps [2011, Pop, HDTVRip]
  • Mylene Farmer / Bleu Noir [2011, Pop, HDTVRip]
  • Футбольные гладиаторы / Ушедшее время / Awaydays (Пэт Холден, драма, кримин ...
  • Похищенная / A Lonely Place to Die (Джулиан Джилби, триллер, криминал, прик ...
  • Похищенная / A Lonely Place to Die (Джулиан Джилби / Julian Gilbey.2011, Ве ...
  • Информация
    Посетители, находящиеся в группе Гости, не могут оставлять комментарии к данной публикации.