вход на сайт

Имя пользователя :
Пароль :

Восстановление пароля Регистрация
Уловка .44 / Catch .44 (Аарон Харви, триллер, драма, криминал, 2011) [BDRip-AVC,Профессиональный (многоголосый, закадровый) + Оригинал]
Рейтинг:
(голосов: 1)



[img]{THEME}/images/logopost.png[/img]



Уловка .44 / Catch .44
«If you are going down, take everyone with you.»

Год выпуска: 2011
Страна: США
Производство: Annapurna Productions, Emmett / Furla Films, Benaroya Pictures
Жанр: триллер, драма, криминал

Режиссёр: Аарон Харви
В ролях: Форест Уитакер, Брюс Уиллис, Малин Акерман, Никки Рид, Дебора Энн Уолл, Брэд Дуриф, Рейла Афродит, Кевин Бирд, Аманда Босли, Эрик Браун

Перевод: Профессиональный (многоголосый, закадровый) [Лицензия] + Оригинал
Субтитры: Русские

Описание: Тес, Доун и Кара — три девушки, зарабатывающие на кусок хлеба в Вегасе. Однажды их жизни круто меняют свой плавный ход, превращаясь в сюжет самой настоящей детективной истории. Это происходит после случайного знакомства Тес со странным незнакомцем по имени Мэл, который предлагает девушкам шанс на лучшую жизнь через совершение «маленького правонарушения».

Не долго думая, подруги решают согласиться на заманчивую сделку, ещё не зная, что же ждёт их впереди. Но стремление изменить жизнь к лучшему, выбраться из пут «скучной жизни» берёт верх, поэтому подруги оказываются вовлечены в водоворот незабываемых приключений и попадают в самый центр явно не скучного развития событий. Когда девушки понимают, что «соскочить» уже не получится, им приходится идти до конца, ценой неимоверных усилий расхлёбывать кашу, которую они сами же и заварили…


Дата премьеры (мир): 9 декабря 2011
Качество: BDRip-AVC
Продолжительность: 01:33:51

Формат: MKV
Видео кодек: x264
Аудио кодек: AC3
Видео: 1152x480 (2.40:1), 23.976 fps, x264 ~2437 kbps avg, 0.184 bit/pixel
Аудио 1: 48 kHz, AC3, 6 ch, 448.00 kbps | Профессиональный (многоголосый, закадровый) [Лицензия]
Аудио 2: 48 kHz, AC3, 6 ch, 448.00 kbps | Оригинал
MediaInfo ▼TextОбщее
Полное имя : Ulovka.44.2011.BDRip-AVC.2,18.mkv
Формат : Matroska
Версия формата : Version 2
Размер файла : 2,19 Гбайт
Продолжительность : 1 ч. 33 м.
Общий поток : 3335 Кбит/сек
Название фильма : Ulovka.44.2011.BDRip-AVC.2,18
Дата кодирования : UTC 2012-02-11 12:10:06
Программа кодирования : mkvmerge v5.3.0 (I could have danced) built on Feb 9 2012 10:38:07
Библиотека кодирования : libebml v1.2.3 + libmatroska v1.3.0
Видео
Идентификатор : 1
Формат : AVC
Формат/Информация : Advanced Video Codec
Профиль формата : [email protected]
Параметр CABAC формата : Да
Параметр ReFrames формата : 11 кадров
Идентификатор кодека : V_MPEG4/ISO/AVC
Продолжительность : 1 ч. 33 м.
Битрейт : 2437 Кбит/сек
Ширина : 1152 пикселя
Высота : 480 пикселей
Соотношение сторон : 2,40:1
Частота кадров : 23,976 кадра/сек
Цветовое пространство : YUV
Субдискретизация насыщенности : 4:2:0
Битовая глубина : 8 бит
Тип развёртки : Прогрессивная
Бит/(Пиксели*Кадры) : 0.184
Размер потока : 1,56 Гбайт (71%)
Заголовок : Источник Blu-ray
Библиотека кодирования : x264 core 119 r2106 07efeb4
Настройки программы : cabac=1 / ref=11 / deblock=1:-2:-1 / analyse=0x3:0x113 / me=umh / subme=9 / psy=1 / psy_rd=1.00:0.10 / mixed_ref=1 / me_range=32 / chroma_me=1 / trellis=1 / 8x8dct=1 / cqm=0 / deadzone=21,11 / fast_pskip=0 / chroma_qp_offset=-3 / threads=3 / sliced_threads=0 / nr=0 / decimate=1 / interlaced=0 / bluray_compat=0 / constrained_intra=0 / bframes=10 / b_pyramid=2 / b_adapt=1 / b_bias=0 / direct=3 / weightb=1 / open_gop=0 / weightp=0 / keyint=240 / keyint_min=23 / scenecut=40 / intra_refresh=0 / rc_lookahead=60 / rc=2pass / mbtree=1 / bitrate=2437 / ratetol=1.0 / qcomp=0.60 / qpmin=0 / qpmax=69 / qpstep=4 / cplxblur=20.0 / qblur=0.5 / ip_ratio=1.40 / aq=1:1.00
Язык : English
Default : Да
Forced : Нет
Аудио #1
Идентификатор : 2
Формат : AC-3
Формат/Информация : Audio Coding 3
Расширение режима : CM (complete main)
Идентификатор кодека : A_AC3
Продолжительность : 1 ч. 33 м.
Вид битрейта : Постоянный
Битрейт : 448 Кбит/сек
Каналы : 6 каналов
Расположение каналов : Front: L C R, Side: L R, LFE
Частота : 48,0 КГц
Битовая глубина : 16 бит
Метод сжатия : С потерями
Размер потока : 301 Мбайт (13%)
Заголовок : Источник DVD
Язык : Russian
Default : Да
4357b6a556ec91cf990f703a841eb19ca12bd384Уловка .44 / Catch .44 (Аарон Харви, триллер, драма, криминал, 2011) [BDRip-AVC,Профессиональный (многоголосый, закадровый) + Оригинал] Уловка .44 / Catch .44 (Аарон Харви, триллер, драма, криминал, 2011) [BDRip-AVC,Профессиональный (многоголосый, закадровый) + Оригинал] " />

Аплоадер: Админ, дата: 13-02-2012, 00:25, торрент скачан: 359 раз

Понравилась раздача? Посмотрите эти:
  • Фрилансеры / Freelancers (Джесси Терреро, боевик, драма, криминал, детектив ...
  • Двойной агент / The Double (Майкл Брандт, боевик, триллер, драма, криминал, ...
  • Погнали! / Getaway (Кортни Соломон, боевик, криминал, 2013) [BDRip 1080p, П ...
  • Погнали! / Getaway (Кортни Соломон, боевик, криминал, 2013) [BDRip-AVC, Про ...
  • 11.6 / 11.6 (Филипп Годо, Драма, триллер, криминал, 2013) [BDRip-AVC, Профе ...
  • Кровавый четверг / Thursday (Скип Вудс, боевик, триллер, драма, криминал, 1 ...
  • Летучий отряд Скотланд-Ярда / The Sweeney (Ник Лав, Боевик, драма, криминал ...
  • Порочные игры / Stoker (Пак Чхан Ук, Триллер, драма, детектив, 2013) [BDRip ...
  • Порочные игры / Stoker (Пак Чхан Ук, Триллер, драма, детектив, 2013) [BDRip ...
  • Астрал на улице Арлетт / 388 Arletta Avenue (Рэндолл Коул, Триллер, 2011) [ ...
  • Уловка .44 / Catch .44 (Аарон Харви, триллер, драма, криминал, 2011) [480x2 ...
  • Бульвар спасения / Salvation Boulevard (Джордж Рэтлифф, боевик, триллер, др ...
  • Суррогат / The Sessions (Бен Луин, Драма, 2012) [BDRip-AVC, Профессиональны ...
  • Ошибка телохранителя / The Girl from the Naked Eye (Дэвид Рен, боевик, трил ...
  • Совсем не бабник / Cedar Rapids (Мигель Артета, комедия, 2011) [BDRip-AVC, ...
  • Соломенные псы / Straw Dogs (Род Лури, Триллер, драма, криминал , 2011) [BD ...
  • Уловка .44 / Catch .44 (Аарон Харви, триллер, драма, криминал, 2011) [HDRip ...
  • Уловка .44 / Catch .44 (Аарон Харви, триллер, драма, криминал, 2011) [BDRip ...
  • Драйв / Drive (Николас Виндинг Рёфн, боевик, триллер, драма, криминал, 2011 ...
  • Уловка .44 / Catch .44 (Аарон Харви, триллер, драма, криминал, 2011) [BDRip ...
  • Сексуальная тварь / Sexy Beast (Джонатан Глейзер, драма, криминал, 2000) [B ...
  • Судный день / The Day (Дуглас Арниокоски, фантастика, триллер, драма, 2011) ...
  • Уловка .44 / Catch .44 (Аарон Харви, триллер, драма, криминал, 2011) [BDRip ...
  • Павшая империя / Hirokin (Алехо Мо-Сан, фантастика, боевик, драма, приключе ...
  • Уловка .44 / Catch .44 (Аарон Харви, триллер, драма, криминал, 2011) [BDRip ...
  • Информация
    Посетители, находящиеся в группе Гости, не могут оставлять комментарии к данной публикации.