вход на сайт

Имя пользователя :
Пароль :

Восстановление пароля Регистрация
Нежность / Tenderness (Джон Полсон, Триллер, драма, криминал, 2009) [HDRip, Профессиональный (двухголосый закадровый)]
Рейтинг:
(голосов: 1)



[img]{THEME}/images/logopost.png[/img]



Нежность / Tenderness
«An edge of your seat thriller»
Год выпуска: 2009
Страна: США
Производство: GreeneStreet Films Inc, Lionsgate
Жанр: Триллер, драма, криминал

Режиссёр: Джон Полсон
В ролях: Рассел Кроу, Джон Фостер, Софи Трауб, Лора Дерн, Алексис Дзена, Ария Барейкис, Тим Хоппер, Вивьенн Бенеш, Брайан Патрик Расселл, Лу Сумралл

Перевод: Профессиональный (двухголосый закадровый)
Субтитры: Отсутствуют

Описание: Вышедший из тюрьмы для несовершеннолетних Эрик Коменко, убивший в состоянии аффекта своих родителей, отправляется в путь, стремясь к новой встрече. Причудливая и влюбленная в Эрика девушка Лора неожиданно оказывается у него в машине, становясь незваной его попутчицей. Находящийся на пенсии лейтенант Джон Кристофоро, следует по пятам за Эриком Коменко, твердо уверившись в его виновности и склонности к убийствам. Что ждет их всех в конечной точке пути? Кто из них бежит от боли, а кто гонится за новым удовольствием?



Дата премьеры (мир): 15 января 2009
Качество: HDRip
Продолжительность: 01:40:55

Формат: AVI
Видео кодек: XviD
Аудио кодек: MP3
Видео: 688x288 (2.40:1), 23.976 fps, XviD build 50, 895 kbps avg, 0.188 bit/pixel
Аудио: 48 kHz, MPEG Layer 3, 2 ch, 128.00 kbps avg
MediaInfo ▼TextVideo
ID : 0
Format : MPEG-4 Visual
Format profile : Advanced [email protected]
Format settings, BVOP : 1
Format settings, QPel : No
Format settings, GMC : No warppoints
Format settings, Matrix : Default (MPEG)
Codec ID : XVID
Codec ID/Hint : XviD
Duration : 1h 40mn
Bit rate : 895 Kbps
Width : 688 pixels
Height : 288 pixels
Display aspect ratio : 2.40:1
Frame rate : 23.976 fps
Color space : YUV
Chroma subsampling : 4:2:0
Bit depth : 8 bits
Scan type : Progressive
Compression mode : Lossy
Bits/(Pixel*Frame) : 0.188
Stream size : 646 MiB (87%)
Writing library : XviD 1.2.1 (UTC 2008-12-04)

Audio
ID : 1
Format : MPEG Audio
Format version : Version 1
Format profile : Layer 3
Codec ID : 55
Codec ID/Hint : MP3
Duration : 1h 40mn
Bit rate mode : Constant
Bit rate : 128 Kbps
Channel(s) : 2 channels
Sampling rate : 48.0 KHz
Compression mode : Lossy
Stream size : 92.4 MiB (12%)
Alignment : Aligned on interleaves
Interleave, duration : 42 ms (1.00 video frame)
Interleave, preload duration : 504 ms
Writing library : LAME3.98r
Encoding settings : -m s -V 4 -q 2 -lowpass 17 -b 128





7308114833077798ee9f0457fc7cf8d9b24c9488Нежность / Tenderness (Джон Полсон, Триллер, драма, криминал, 2009) [HDRip, Профессиональный (двухголосый закадровый)] Нежность / Tenderness (Джон Полсон, Триллер, драма, криминал, 2009) [HDRip, Профессиональный (двухголосый закадровый)] " />

Аплоадер: Админ, дата: 30-01-2012, 13:33, торрент скачан: 359 раз

Понравилась раздача? Посмотрите эти:
  • Погнали! / Getaway (Кортни Соломон, Боевик,Криминал, 2013) [HDRip, Професси ...
  • Хладнокровная / Cold Blooded (Джейсон Лапейр, Триллер, криминал, 2012) [WEB ...
  • Ледяной / The Iceman (Ариэль Вромен, триллер, драма, криминал, биография, 2 ...
  • Линия / La linea (Джеймс Коттен, Боевик, Триллер, Драма, Криминал, 2009) [H ...
  • Линия / La linea (Джеймс Коттен, Боевик, Триллер, Драма, Криминал, 2009) [H ...
  • Кодовое имя «Джеронимо» / Seal Team Six: The Raid on Osama Bin Laden (Джон ...
  • Любой ценой / At Any Price (Рамин Бахрани, Триллер, Драма, 2012) [HDRip, Пр ...
  • Колония / The Colony (Джефф Ренфро, фантастика, боевик, триллер, 2013) [DVD ...
  • Игра смерти / Game of death (Роберт Клауз, Саммо Хунг Кам-Бо, Брюс Ли, боев ...
  • Псы войны / The Dogs of War (Джон Ирвин, боевик, драма, приключения, военны ...
  • Нежность / Tenderness (Джон Полсон, триллер, драма, криминал, 2009) [BDRip ...
  • Заговорщица / The Conspirator (Роберт Редфорд, драма, криминал, история, 20 ...
  • Следопыт / Tracker (Йен Шарп, боевик, драма, приключения, 2010) [HDRip, Про ...
  • Буря в Арктике / Arctic Blast (Брайан Тренчард-Смит, фантастика, триллер, 2 ...
  • Он был тихоней / He Was a Quiet Man (Фрэнк А. Каппелло / Frank A. Cappello, ...
  • Повторяющие / Repeaters (режиссёр, фантастика, триллер, драма, 2010) [DVDRi ...
  • Неприкасаемые / Intouchables (Оливье Накаш, Эрик Толедано, Драма, 2011) [BD ...
  • Искажение / Skew (Сейв Челенз, ужасы, триллер, 2011) [HDRip, Профессиональн ...
  • Ничего, кроме правды / Nothing But the Truth (Род Лури, триллер, драма, 200 ...
  • Крузо / Crusoe (Калеб Дешанель, Драма, 1988) [HDTVRip, Профессиональный (дв ...
  • Информация
    Посетители, находящиеся в группе Гости, не могут оставлять комментарии к данной публикации.