вход на сайт

Имя пользователя :
Пароль :

Восстановление пароля Регистрация
Аноним / Anonymous (Роланд Эммерих, триллер, драма, 2011) [BDRip-AVC, Профессиональный (полное дублирование) + Оригинал]
Рейтинг:
(голосов: 1)



[img]{THEME}/images/logopost.png[/img]



Аноним | Anonymous
«Что скрывает имя Шекспир?»

Год выпуска: 2011
Страна: Германия Великобритания
Производство: Centropolis Entertainment, Columbia Pictures, elativity Media, Studio Babelsberg Motion Pictures GmbH
Жанр: триллер, драма

Режиссёр: Роланд Эммерих
В ролях: Рис Иванс, Ванесса Редгрейв, Себастьян Фернандес-Арместо, Рейф Сполл, Дэвид Тьюлис, Эдвард Хогг, Ксавьер Сэмюэл, Сэм Рейд, Джейми Кэмпбелл Бауэр, Джоэли Ричардсон...

Перевод: Профессиональный (полное дублирование) [лицензия] + Оригинал
Субтитры: Русские (форсированные, только 3 фразы), английские

Описание: Фильм даст совершенно неожиданный ответ на извечный вопрос: а кем же «был или не был» Шекспир, и кто на самом деле скрывается за этим всемирно известным именем великого человека?

IMDB: 6.90 (4 415)
КиноПоиск: 7.572 (11 312)

Сэмпл

Качество: BDRip-AVC
Продолжительность: 02:09:58 час.

Формат: MKV
Видео кодек: x264
Аудио кодек: AC3 Dolby Digital
Видео: 1120x476 (2.35:1), 23.976 fps, x264 ~2250 kbps avg, 0.17bit/pixel
Аудио 1: 48 kHz, AC3 Dolby Digital, 6 channels (Front: L R), ~448 kbps - Профессиональный (полное дублирование) [лицензия]
Аудио 2: 48 kHz, AC3 Dolby Digital, 6 channels (Front: L R), ~448 kbps - Оригинал

Дата премьеры (мир): 11 сентября 2011
Дата премьеры (РФ): 17 ноября 2011, «WDSSPR»

MediaInfo ▼General
Complete name : E:...Anonymous.2011.US.BDRip.x264.AC3.Rus.Eng-tRuAVC.mkv
Format : Matroska
Format version : Version 2
File size : 2.86 GiB
Duration : 2h 9mn
Overall bit rate : 3 146 Kbps
Movie name : Anonymous.2011.US.BDRip.x264.AC3.Rus.Eng-tRuAVC
Encoded date : UTC 2012-01-27 23:46:30
Writing application : mkvmerge v5.2.1 (A Far Off Place) built on Jan 2 2012 23:21:10
Writing library : libebml v1.2.3 + libmatroska v1.3.0
Video
ID : 1
Format : AVC
Format/Info : Advanced Video Codec
Format profile : [email protected]
Format settings, CABAC : Yes
Format settings, ReFrames : 12 frames
Codec ID : V_MPEG4/ISO/AVC
Duration : 2h 9mn
Bit rate : 2 187 Kbps
Width : 1 120 pixels
Height : 476 pixels
Display aspect ratio : 2.35:1
Frame rate : 23.976 fps
Color space : YUV
Chroma subsampling : 4:2:0
Bit depth : 8 bits
Scan type : Progressive
Bits/(Pixel*Frame) : 0.171
Stream size : 1.99 GiB (70%)
Title : Encode by [email protected] for rutracker.org
Writing library : x264 core 120 r2146kMod bcd41db
Encoding settings : cabac=1 / ref=12 / deblock=1:-3:-3 / analyse=0x3:0x113 / me=umh / subme=11 / psy=1 / fade_compensate=0.00 / psy_rd=1.00:0.00 / mixed_ref=1 / me_range=64 / chroma_me=1 / trellis=2 / 8x8dct=1 / cqm=0 / deadzone=21,11 / fast_pskip=1 / chroma_qp_offset=-2 / threads=6 / sliced_threads=0 / nr=0 / decimate=1 / interlaced=0 / bluray_compat=0 / constrained_intra=0 / bframes=14 / b_pyramid=2 / b_adapt=2 / b_bias=0 / direct=1 / weightb=1 / open_gop=0 / weightp=2 / keyint=240 / keyint_min=23 / scenecut=40 / intra_refresh=0 / rc_lookahead=40 / rc=crf / mbtree=0 / crf=18.0000 / qcomp=0.55 / qpmin=0 / qpmax=69 / qpstep=4 / vbv_maxrate=50000 / vbv_bufsize=62500 / crf_max=0.0 / nal_hrd=none / ip_ratio=1.40 / pb_ratio=1.10 / aq=3:1.10 / zones=180832,186958,q=35
Language : English
Matrix coefficients : BT.709-5, BT.1361, IEC 61966-2-4 709, SMPTE RP177
Audio #1
ID : 2
Format : AC-3
Format/Info : Audio Coding 3
Mode extension : CM (complete main)
Codec ID : A_AC3
Duration : 2h 9mn
Bit rate mode : Constant
Bit rate : 448 Kbps
Channel(s) : 6 channels
Channel positions : Front: L C R, Side: L R, LFE
Sampling rate : 48.0 KHz
Bit depth : 16 bits
Compression mode : Lossy
Stream size : 416 MiB (14%)
Title : Dub
Language : Russian
Audio #2
ID : 3
Format : AC-3
Format/Info : Audio Coding 3
Mode extension : CM (complete main)
Codec ID : A_AC3
Duration : 2h 9mn
Bit rate mode : Constant
Bit rate : 448 Kbps
Channel(s) : 6 channels
Channel positions : Front: L C R, Side: L R, LFE
Sampling rate : 48.0 KHz
Bit depth : 16 bits
Co
1fca0c0a57ae28c94172d6ec530b040be1095f25Аноним / Anonymous (Роланд Эммерих, триллер, драма, 2011) [BDRip-AVC, Профессиональный (полное дублирование) + Оригинал] Аноним / Anonymous (Роланд Эммерих, триллер, драма, 2011) [BDRip-AVC, Профессиональный (полное дублирование) + Оригинал] " />

Аплоадер: Админ, дата: 28-01-2012, 20:12, торрент скачан: 359 раз

Понравилась раздача? Посмотрите эти:
  • Сыщик / Sleuth (Кеннет Брэна, Триллер, драма, детектив, 2007) [BDRip-AVC, П ...
  • Железная леди / The Iron Lady (Филлида Ллойд, драма, биография, история, 20 ...
  • Жизнь Пи / Life Of Pi (Энг Ли, Драма, приключения, 2012) [BDRip 720p, Профе ...
  • Аноним / Anonymous (Роланд Эммерих, триллер, драма, 2011) [BDRip-AVC, Профе ...
  • Аноним / Anonymous (Роланд Эммерих, Триллер, 2011) [BDRip - AVC, Дубляж]
  • Аноним / Anonymous (Роланд Эммерих, Триллер, 2011) [BDRip - AVC, Дубляж + У ...
  • Аноним / Anonymous (Роланд Эммерих , триллер, драма, 2011) [HDRip-AVC, Проф ...
  • Голодный кролик атакует / Seeking Justice (Роджер Дональдсон / Roger Donald ...
  • Мартовские иды / The Ides of March (Джордж Клуни / George Clooney, драма, 2 ...
  • Боевой конь / War Horse (Стивен Спилберг, драма, военный, 2011) [BDRip-AVC, ...
  • На грани / Man on a Ledge (Асгер Лет, триллер, криминал, 2012) [BDRip-AVC, ...
  • Аноним / Anonymous (Роланд Эммерих, триллер, драма, 2011) [BDRip 720p, Проф ...
  • Аноним / Anonymous (Роланд Эммерих / Roland Emmerich, триллер, драма, 2011) ...
  • Аноним / Anonymous (Роланд Эммерих , триллер, драма, 2011) [DVD 9, Професси ...
  • Аноним / Anonymous (Роланд Эммерих, триллер, драма, 2011 г) [320x240] [DVDR ...
  • Аноним / Anonymous (Роланд Эммерих, триллер, драма, 2011) [HDRip, Профессио ...
  • Аноним / Anonymous (Роланд Эммерих , триллер, драма, 2011) [HDRip, Професси ...
  • Аноним / Anonymous (Роланд Эммерих / Roland Emmerich, триллер, драма, 2011) ...
  • Аноним / Anonymous (Роланд Эммерих , триллер, драма, 2011) [BDRip, Професси ...
  • Аноним / Anonymous (Роланд Эммерих, триллер, драма, 2011) [HDRip, Профессио ...
  • Информация
    Посетители, находящиеся в группе Гости, не могут оставлять комментарии к данной публикации.