вход на сайт

Имя пользователя :
Пароль :

Восстановление пароля Регистрация
Дом грёз / Dream House (Джим Шеридан, триллер, драма, детектив, 2011) [BDRip-AVC, Дубляж]
Рейтинг:
(голосов: 1)



[img]{THEME}/images/logopost.png[/img]



Дом грёз / Dream House
Cлоган: «Once upon a time, there were two little girls who lived in a house.»

Год выпуска: 2011
Страна: США
Производство: Morgan Creek Productions, Cliffjack Motion Pictures
Жанр: триллер, драма, детектив

Режиссёр: Джим Шеридан
В ролях: Дэниэл Крэйг, Рейчел Вайс, Наоми Уоттс, Элиас Котеас, Мартон Чокаш, Тейлор Джир, Клер Джир, Рэйчел Дж. Фокс, Джейн Александр, Брайан Мюррей

Перевод: Дубляж
Субтитры: есть (на непереведенный фрагмент)
Примечание: Это рип с BD US-версии. Присутствует дополнительная сцена, длительностью чуть более 1-ой минуты. На этот фрагмент в раздачу добавлены русские (Forced) субтитры отдельным файлом. И здесь другая цветопередача.

Описание: Состоятельный издатель со своей женой и двумя дочерьми переезжают в тихий провинциальный городок, который на поверку оказывается не таким уж и тихим. При участии любопытной соседки семейство узнает, что их дом стал местом жестокого убийства, а преступник до сих пор разгуливает на свободе.



Rip by: chopper887

Качество: BDRip-AVC
Продолжительность: 01:31:59

Формат: MKV
Видео кодек: x264
Аудио кодек: AC3
Видео: 1248x520 (2.40:1), 23.976 fps,~1818 kbps avg, 0.117 bit/pixel
Аудио: 48 kHz, AC3 Dolby Digital, 3/2 (L,C,R,l,r) + LFE ch, ~448 kbps

Media Info ▼General
Unique ID : 195270853743094306333848956542584465687 (0x92E7CC6727256CE0A25FD2F8CCD1A917)
Complete name : E:DownloadsDom.Grez.US.chopper887.mkv
Format : Matroska
File size : 1.46 GiB
Duration : 1h 31mn
Overall bit rate : 2 267 Kbps
Movie name : Dom.Grez.US.chopper887
Encoded date : UTC 2012-01-23 13:16:58
Writing application : mkvmerge v4.8.0 (I Got The...) сборка от May 24 2011 03:12:58
Writing library : libebml v1.2.0 + libmatroska v1.1.0

Video
ID : 1
Format : AVC
Format/Info : Advanced Video Codec
Format profile : [email protected]
Format settings, CABAC : Yes
Format settings, ReFrames : 9 frames
Codec ID : V_MPEG4/ISO/AVC
Duration : 1h 31mn
Bit rate : 1 818 Kbps
Width : 1 248 pixels
Height : 520 pixels
Display aspect ratio : 2.40:1
Frame rate : 23.976 fps
Color space : YUV
Chroma subsampling : 4:2:0
Bit depth : 8 bits
Scan type : Progressive
Bits/(Pixel*Frame) : 0.117
Stream size : 1.14 GiB (78%)
Title : Dom.Grez.US.chopper887
Writing library : x264 core 116 r2074 2641b9e
Encoding settings : cabac=1 / ref=9 / deblock=1:-2:-1 / analyse=0x3:0x133 / me=umh / subme=11 / psy=1 / psy_rd=1.00:0.10 / mixed_ref=1 / me_range=32 / chroma_me=1 / trellis=2 / 8x8dct=1 / cqm=0 / deadzone=21,11 / fast_pskip=0 / chroma_qp_offset=-3 / threads=12 / sliced_threads=0 / nr=0 / decimate=1 / interlaced=0 / bluray_compat=0 / constrained_intra=0 / bframes=10 / b_pyramid=2 / b_adapt=2 / b_bias=0 / direct=3 / weightb=1 / open_gop=0 / weightp=2 / keyint=250 / keyint_min=23 / scenecut=40 / intra_refresh=0 / rc_lookahead=80 / rc=2pass / mbtree=1 / bitrate=1818 / ratetol=1.0 / qcomp=0.60 / qpmin=0 / qpmax=69 / qpstep=4 / cplxblur=20.0 / qblur=0.5 / ip_ratio=1.40 / aq=1:1.00
Language : English

Audio
ID : 2
Format : AC-3
Format/Info : Audio Coding 3
Mode extension : CM (complete main)
Codec ID : A_AC3
Duration : 1h 31mn
Bit rate mode : Constant
Bit rate : 448 Kbps
Channel(s) : 6 channels
Channel positions : Front: L C R, Side: L R, LFE
Sampling rate : 48.0 KHz
Bit depth : 16 bits
Compression mode : Lossy
Stream size : 294 MiB (20%)
Title : Dub

Text
ID : 3
Format : UTF-8
Codec ID : S_TEXT/UTF8
Codec ID/Info : UTF-8 Plain Text
Title : Rus(forced)

Наши рипы / Набор в РГ/Стол заказов РГ / Стол заказов по РИПам


589de2615cc052b2c72019334af68cfd4c8a9eaaДом грёз / Dream House (Джим Шеридан, триллер, драма, детектив, 2011) [BDRip-AVC, Дубляж] Дом грёз / Dream House (Джим Шеридан, триллер, драма, детектив, 2011) [BDRip-AVC, Дубляж] " />

Аплоадер: Админ, дата: 26-01-2012, 00:54, торрент скачан: 359 раз

Понравилась раздача? Посмотрите эти:
  • Гость / The Caller (Мэттью Паркхилл, триллер, детектив, 2011) [BDRip 720p, ...
  • Аноним / Anonymous (Роланд Эммерих, триллер, драма, 2011) [BDRip-AVC, Профе ...
  • Дом грёз / Dream House (Джим Шеридан, триллер, драма, детектив, 2011) [BDRi ...
  • Профессионал / Killer Elite (Гэри МакКендри , боевик, триллер, криминал, 20 ...
  • Голодный кролик атакует / Seeking Justice (Роджер Дональдсон / Roger Donald ...
  • Хранитель времени / Hugo (Мартин Скорсезе, Драма, 2011) [BDRip-AVC, Професс ...
  • Хранитель времени / Hugo (Мартин Скорсезе, Драма, 2011) [BDRip-AVC, Професс ...
  • Похищенная / A Lonely Place to Die (Джулиан Джилби, триллер, криминал, прик ...
  • Экстрасенс / The Awakening (Ник Мерфи, ужасы, триллер, 2011) [BDRip-AVC, Ду ...
  • Курьер / The Courier (Хани Абу-Ассад, боевик, триллер, криминал, 2011) [HDR ...
  • «Старый» Новый год / New Years Eve (Гэрри Маршалл, Мелодрама, 2011) [BDRip- ...
  • Фантомы / Shutter (Масаюки Очиай, ужасы, триллер, детектив, 2008) [BDRip-AV ...
  • Дом грёз / Dream House (Джим Шеридан, триллер, драма, детектив, 2011) [HDRi ...
  • Исходный код / Source Code (Дункан Джонс, фантастика, боевик, триллер, 2011 ...
  • Бобер / The Beaver (Джоди Фостер, драма, 2011) [BDRip 720p, Дубляж + Оригин ...
  • Дом грёз / Dream House (Джим Шеридан, триллер, драма, детектив, 2011) [BDRi ...
  • Ворон / The Raven (Джеймс МакТиг, Триллер, детектив, 2012) [BDRip 720p, Дуб ...
  • Mylene Farmer / Du Temps [2011, Pop, HDTVRip]
  • Mylene Farmer / Bleu Noir [2011, Pop, HDTVRip]
  • Дом грёз / Dream House (Джим Шеридан, триллер, драма, детектив, 2011) [BDRi ...
  • Дом грёз / Dream House (Джим Шеридан, триллер, драма, детектив, 2011) [BDRi ...
  • Дом грёз / Dream House (Джим Шеридан / Jim Sheridan, триллер, драма, детект ...
  • Дом грёз / Dream House (Джим Шеридан, триллер, драма, детектив, 2011г) [320 ...
  • Дом грёз / Dream House (Джим Шеридан, триллер, драма, детектив, 2011) [HDRi ...
  • Дом грёз / Dream House (Джим Шеридан, триллер, драма, детектив, 2011) [BDRi ...
  • Информация
    Посетители, находящиеся в группе Гости, не могут оставлять комментарии к данной публикации.