вход на сайт

Имя пользователя :
Пароль :

Восстановление пароля Регистрация
Город воров / The Town [Театральная версия / Theatrical Cut] (Бен Аффлек / Ben Affleck, триллер, драма, криминал, 2010) [BDRip-AVC, Профессиональный (полное дублированние) + Оригинал]
Рейтинг:
(голосов: 1)



[img]{THEME}/images/logopost.png[/img]



Город воров / The Town [Театральная версия / Theatrical Cut]
«Добро пожаловать в криминальную столицу Америки»

Год выпуска: 2010
Страна: США
Производство: GK Films
Жанр: триллер, драма, криминал

Режиссёр: Бен Аффлек / Ben Affleck
В ролях: Бен Аффлек, Ребекка Холл, Джон Хэмм, Джереми Реннер, Блейк Лайвли, Оуэн Бурк, Титус Уэлливер, Пит Постлетуэйт, Крис Купе

Перевод: Профессиональный (полное дублированние) [лицензия] + Оригинал
Субтитры: Русские, английские

Описание: Профессиональный вор Даг влюбляется в Клэр — работницу банка, которая переживает не лучшие времена. Девушка ничего не знает о преступной жизни Дага, зато о ней догадывается детектив, чье расследование может поставить крест на отношениях Дага и Клэр.



Качество: BDRip-AVC [Исх. BluRay GER 1080p]
Продолжительность: 02:04:44

Формат: MKV
Видео кодек: x264
Аудио кодек: AC3 Dolby Digital
Видео: 1040x432 (2.40:1), 23,976 fps, ~1 738 kbps avg, 0.161 bit/pixel
Аудио 1: 48 kHz, AC3 Dolby Digital, 3/2 (L,C,R,l,r) + LFE ch, ~384.00 kbps avg - Профессиональный (полное дублированние) [лицензия]
Аудио 2: 48 kHz, AC3 Dolby Digital, 3/2 (L,C,R,l,r) + LFE ch, ~384.00 kbps avg - Оригинал

Дата премьеры (мир): 8 сентября 2010
Дата премьеры (мир): 21 октября 2010, «Каро-Премьер»

MediaInfo ▼General
Unique ID : 250575365453527752082389363667481901802 (0xBC830F59E253DAF2895718031BBBBAEA)
Complete name : I:OtherGorod.vorov.2010.Dub.BDRip.x264-Vaippp.mkv
Format : Matroska
File size : 2.18 GiB
Duration : 2h 4mn
Overall bit rate : 2 507 Kbps
Movie name : Gorod vorov (2010) release by Vaippp
Encoded date : UTC 2011-02-22 18:05:45
Writing application : mkvmerge v4.4.0 (Die Wiederkehr) сборка от Oct 31 2010 21:52:48
Writing library : libebml v1.0.0 + libmatroska v1.0.0
Video
ID : 1
Format : AVC
Format/Info : Advanced Video Codec
Format profile : [email protected]
Format settings, CABAC : Yes
Format settings, ReFrames : 9 frames
Codec ID : V_MPEG4/ISO/AVC
Duration : 2h 4mn
Bit rate : 1 738 Kbps
Width : 1 040 pixels
Height : 432 pixels
Display aspect ratio : 2.40:1
Frame rate : 23.976 fps
Color space : YUV
Chroma subsampling : 4:2:0
Bit depth : 8 bits
Scan type : Progressive
Bits/(Pixel*Frame) : 0.161
Stream size : 1.47 GiB (67%)
Title : BDRip by Vaippp
Writing library : x264 core 112 r1867 22bfd31
Encoding settings : cabac=1 / ref=9 / deblock=1:-2:-1 / analyse=0x3:0x113 / me=umh / subme=9 / psy=1 / psy_rd=1.00:0.10 / mixed_ref=1 / me_range=32 / chroma_me=1 / trellis=2 / 8x8dct=1 / cqm=0 / deadzone=21,11 / fast_pskip=0 / chroma_qp_offset=-3 / threads=4 / sliced_threads=0 / nr=0 / decimate=1 / interlaced=0 / constrained_intra=0 / bframes=8 / b_pyramid=2 / b_adapt=2 / b_bias=0 / direct=3 / weightb=1 / open_gop=0 / weightp=2 / keyint=250 / keyint_min=23 / scenecut=40 / intra_refresh=0 / rc_lookahead=60 / rc=2pass / mbtree=1 / bitrate=1738 / ratetol=1.0 / qcomp=0.60 / qpmin=10 / qpmax=51 / qpstep=4 / cplxblur=20.0 / qblur=0.5 / ip_ratio=1.40 / aq=1:1.00 / zones=170592,179439,q=37
Language : English
Audio #1
ID : 2
Format : AC-3
Format/Info : Audio Coding 3
Mode extension : CM (complete main)
Codec ID : A_AC3
Duration : 2h 4mn
Bit rate mode : Constant
Bit rate : 384 Kbps
Channel(s) : 6 channels
Channel positions : Front: L C R, Side: L R, LFE
Sampling rate : 48.0 KHz
Bit depth : 16 bits
Compression mode : Lossy
Stream size : 343 MiB (15%)
Title : DUB R5
Language : Russian
Audio #2
ID : 3
Format : AC-3
Format/Info : Audio Coding 3
Mode extension : CM (complete main)
Codec ID : A_AC3
Duration : 2h 4mn
Bit rate mode : Constant
Bit rate : 384 Kbps
Channel(s) : 6 channels
Channel positions : Front: L C R, Side: L R, LFE
Sampling rate : 48.0 KHz
Bit depth : 16 bits
Compression mode : Lossy
Stream size : 343 MiB (15%)
Title : Original
Language : English
Text #1
ID : 4
Format : UTF-8
Codec ID : S_TEXT/UTF8
Codec ID/Info : UTF-8 Plain Text
Language :
eaab393f5503d304cf481da7da79a62434621e8aГород воров / The Town [Театральная версия / Theatrical Cut] (Бен Аффлек / Ben Affleck, триллер, драма, криминал, 2010) [BDRip-AVC, Профессиональный (полное дублированние) + Оригинал] Город воров / The Town [Театральная версия / Theatrical Cut] (Бен Аффлек / Ben Affleck, триллер, драма, криминал, 2010) [BDRip-AVC, Профессиональный (полное дублированние) + Оригинал] " />

Аплоадер: Админ, дата: 25-01-2012, 21:58, торрент скачан: 359 раз

Понравилась раздача? Посмотрите эти:
  • Иллюзия обмана / Now You See Me [Theatrical Cut] (Луи Летерье / Louis Leter ...
  • Город воров / The Town (Бен Аффлек, триллер, драма, криминал, 2010) [HDRip, ...
  • Железный Кулак [Театральная версия] / The Man with the Iron Fists [Theatric ...
  • Город воров / The Town (Бен Аффлек, триллер, драма, криминал, 2010) [HDRip- ...
  • Город Воров / The Town (Бен Аффлек, триллер, драма, криминал, 2010) [BDRip- ...
  • Артур и война двух миров / Arthur et la guerre des deux mondes (Люк Бессон ...
  • Путешествия Гулливера / Gullivers Travels (Роб Леттерман / Rob Letterman, ф ...
  • Паранормальное явление 2 / Paranormal Activity 2 [Theatrical Сut / Театраль ...
  • Голодный кролик атакует / Seeking Justice (Роджер Дональдсон / Roger Donald ...
  • Человек-волк [Театральная версия] / The Wolfman [Theatrical cut] (Джо Джонс ...
  • Город воров [Расширенная версия] / The Town [Extended Cut] (Бен Аффлек, три ...
  • Город воров [Театральная версия] / The Town [Theatrical cut] (Бен Аффлек, т ...
  • Город воров / The Town (Бен Аффлек, триллер, драма, криминал, 2010) [DVD9, ...
  • Белоснежка и охотник [Театральная версия] / Snow White and the Huntsman [Th ...
  • [EN] Город воров / The Town (Бен Аффлек, триллер, драма, криминал, 2010) [D ...
  • Город воров / The Town (Бен Аффлек, триллер, драма, криминал, 2010) [HDRip, ...
  • Город воров / The Town [Театральная версия / Theatrical Cut] (Бен Аффлек, т ...
  • Город воров / The Town [EXTENDED] (Бен Аффлек / триллер, драма, криминал / ...
  • Город воров / The Town (Бен Аффлек, триллер, драма, криминал, 2010) [DVD5, ...
  • Город воров / The Town [Расширенная версия / Extended cut] (Бен Аффлек / Be ...
  • Информация
    Посетители, находящиеся в группе Гости, не могут оставлять комментарии к данной публикации.