вход на сайт

Имя пользователя :
Пароль :

Восстановление пароля Регистрация
Двойной агент / The Double (Майкл Брандт, триллер, 2011) [HDRip-AVC, Любительский (двухголосый), Оригинал]
Рейтинг:
(голосов: 1)



[img]{THEME}/images/logopost.png[/img]



Двойной агент / The Double
«Keep your enemies close»


Год выпуска: 2011
Страна: США
Производство: Agent Two, Brandt/Haas Productions, Hyde Park Entertainment, Imagenation Abu Dhabi FZ, Industry Entertainment
Жанр: триллер, драма, криминал, детектив

Режиссёр: Майкл Брандт
В ролях: Ричард Гир, Одетт Эннэйбл, Тофер Грейс, Стана Катик, Мартин Шин, Стивен Мойер, Крис Маркетт, Тэмер Хассан, Джеффри Пирс, Николь Скотт

Перевод: Любительский (двухголосый закадровый), Оригинал [Отдельно]
Субтитры: английские

Описание: После убийства конгрессмена все улики указывают на то, что его совершил агент КГБ по кличке «Кассий». Но он давно считается погибшим… Чтобы найти убийцу ЦРУ объединяет молодого сотрудника и ветерана спецслужб — Пола, который на протяжении всей своей карьеры боролся с советскими агентами. Никто не знает, что Пол — это и есть Кассий. Пока новичок постепенно приоткрывает завесу тайны над прошлым своего заслуженного напарника, Пол стремится найти и уничтожить таинственного имитатора.




Качество: HDRip-AVC [BDRip.1080p]
Продолжительность: 01:38:20 час.

Формат: MKV
Видео кодек: H.264
Аудио кодек: AC3
Видео: 1024 x 436 (2.349) at 23.976 fps,AVC at 3083 Кбит/сек
Аудио #1: AC-3 at 192 Кбит/сек,2 канала, 48,0 КГц,[RUS]
Аудио #2: AC-3 at 384 Кбит/сек,6 каналов, 48,0 КГц,[ENG][Внешняя]
"Mediainfo" ▼
Общее
Полное имя : F:Dvoinoi.agent.2011.HDRip-AVC.mkv
Формат : Matroska
Версия формата : Version 2
Размер файла : 2,25 Гбайт
Продолжительность : 1 ч. 38 м.
Общий поток : 3275 Кбит/сек
Дата кодирования : UTC 2012-01-16 01:27:05
Программа кодирования : mkvmerge v5.0.1 (Es ist Sommer) built on Oct 9 2011 11:55:43
Библиотека кодирования : libebml v1.2.2 + libmatroska v1.3.0
Видео
Идентификатор : 1
Формат : AVC
Формат/Информация : Advanced Video Codec
Профиль формата : [email protected]
Параметр CABAC формата : Да
Параметр ReFrames формата : 11 кадров
Идентификатор кодека : V_MPEG4/ISO/AVC
Продолжительность : 1 ч. 38 м.
Битрейт : 3083 Кбит/сек
Ширина : 1024 пикселя
Высота : 436 пикселей
Соотношение сторон : 2,35:1
Частота кадров : 23,976 кадра/сек
Цветовое пространство : YUV
Субдискретизация насыщенности : 4:2:0
Битовая глубина : 8 бит
Тип развёртки : Прогрессивная
Бит/(Пиксели*Кадры) : 0.288
Размер потока : 2,07 Гбайт (92%)
Библиотека кодирования : x264 core 116 r2074 2641b9e
Настройки программы : cabac=1 / ref=11 / deblock=1:-3:-2 / analyse=0x3:0x133 / me=umh / subme=10 / psy=1 / psy_rd=1.00:0.00 / mixed_ref=1 / me_range=32 / chroma_me=1 / trellis=2 / 8x8dct=1 / cqm=0 / deadzone=21,11 / fast_pskip=1 / chroma_qp_offset=-2 / threads=12 / sliced_threads=0 / nr=0 / decimate=1 / interlaced=0 / bluray_compat=0 / constrained_intra=0 / bframes=10 / b_pyramid=2 / b_adapt=2 / b_bias=0 / direct=3 / weightb=1 / open_gop=0 / weightp=2 / keyint=250 / keyint_min=24 / scenecut=40 / intra_refresh=0 / rc=2pass / mbtree=0 / bitrate=3083 / ratetol=1.0 / qcomp=0.70 / qpmin=0 / qpmax=69 / qpstep=4 / cplxblur=20.0 / qblur=0.5 / ip_ratio=1.40 / pb_ratio=1.30 / aq=1:1.00
Язык : English
Аудио
Идентификатор : 2
Формат : AC-3
Формат/Информация : Audio Coding 3
Расширение режима : CM (complete main)
Идентификатор кодека : A_AC3
Продолжительность : 1 ч. 38 м.
Вид битрейта : Постоянный
Битрейт : 192 Кбит/сек
Каналы : 2 канала
Расположение каналов : Front: L R
Частота : 48,0 КГц
Битовая глубина : 16 бит
Метод сжатия : С потерями
Размер потока : 135 Мбайт (6%)
Заголовок : DVO
Язык : Russian
Текст
Идентификатор : 3
Формат : UTF-8
Идентификатор кодека : S_TEXT/UTF8
Идентификатор кодека/Информация : UTF-8 Plain Text
Язык : English



Стол заказов POWER | Отзывы | Вступление в POWER


a44cf3c435ffab15e1a05d442f7b95150872b96cДвойной агент / The Double (Майкл Брандт, триллер, 2011) [HDRip-AVC, Любительский (двухголосый), Оригинал] Двойной агент / The Double (Майкл Брандт, триллер, 2011) [HDRip-AVC, Любительский (двухголосый), Оригинал] " />

Аплоадер: Админ, дата: 18-01-2012, 02:44, торрент скачан: 359 раз

Понравилась раздача? Посмотрите эти:
  • Двойной агент / The Double (Майкл Брандт, боевик, триллер, драма, криминал, ...
  • 11.6 / 11.6 (Филипп Годо, Драма, триллер, криминал, 2013) [BDRip-AVC, Профе ...
  • Иллюзия обмана / Now You See Me [Extended Cut] (Луи Летерье, триллер, крими ...
  • Башня / The Tower (Чи-хун Ким, драма, 2012) [BDRip-AVC, Любительский (двухг ...
  • Больше чем мёд / More Than Honey (документальный, 2012) [BDRip 720p, Профес ...
  • Вампирша / Rise (Себастьян Гутиеррес, ужасы, боевик, триллер, детектив, 200 ...
  • Тачка №19 / Vehicle 19 (Мукунда Майкл Дьюил, триллер, боевик, 2013) [HDRip- ...
  • Призраки / Ghosted (Крэйг Вивейрос, Триллер, драма, 2011) [BDRip-AVC, Профе ...
  • Страшно красив / Beastly (Даниел Барнз, фэнтези, драма, мелодрама, 2011) [H ...
  • Начинающие / Beginners (Майк Миллс / Mike Mills, драма, мелодрама, комедия, ...
  • Соломенные псы / Straw Dogs (Род Лури, Триллер, драма, криминал , 2011) [BD ...
  • Заражение / Contagion (Стивен Содерберг, триллер, драма, 2011) [BDRip-AVC, ...
  • Погоня / Abduction (Джон Синглтон, боевик, триллер, драма, детектив, 2011) ...
  • Иностранный легион / La cité (Ким Нгуйен / Kim Nguyen, драма, 2010) [DVDRip ...
  • Драйв / Drive (Николас Виндинг Рёфн, боевик, триллер, драма, криминал, 2011 ...
  • Профессионал / Killer Elite (Гэри МакКендри, боевик, 2011) [BDRip-AVC, Проф ...
  • Время / In Time (Эндрю Никкол, фантастика, триллер, криминал, 2011) [HDRip- ...
  • Агент Джонни Инглиш: Перезагрузка / Johnny English Reborn (Оливер Паркер, б ...
  • Тонкий Лед / The Convincer (Джилл Шпрехер, Драма, комедия, криминал, 2011) ...
  • Наёмные убийцы / Contract Killers (Джастин Б. Родс, Боевик, 2009) [HDRip-AV ...
  • Эд Вуд / Ed Wood (Тим Бёртон, драма, комедия, биография, 1994) [BDRip-AVC, ...
  • Помогите Стать Отцом / Not Suitable For Children (Питер Темплмен, Мелодрама ...
  • Заражение / Contagion (Стивен Содерберг, Фантастика, 2011) [BDRip 1080p, Пр ...
  • Скуби-Ду: Нападение Пантазаура / Scooby-Doo: Legend of the Phantosaur (Дугл ...
  • Преследование / Слежка / Following (Кристофер Нолан, триллер, драма, кримин ...
  • Информация
    Посетители, находящиеся в группе Гости, не могут оставлять комментарии к данной публикации.