вход на сайт

Имя пользователя :
Пароль :

Восстановление пароля Регистрация
Драйв / Drive (Николас Виндинг Рёфн, боевик, триллер, драма, криминал, 2011) [BDRip-AVC, Профессиональный (полное дублирование) + Оригинал]
Рейтинг:
(голосов: 1)



[img]{THEME}/images/logopost.png[/img]



Драйв | Drive
«Some Heroes Are Real»

Год выпуска: 2011
Страна: США
Производство: Bold Films, Odd Lot Entertainment
Жанр: триллер, драма, криминал

Режиссёр: Николас Виндинг Рефн
В ролях: Райан Гослинг, Кэри Маллиган, Брайан Крэнстон, Альберт Брукс, Оскар Айзек, Кристина Хендрикс, Рон Перлман, Каден Леос, Джефф Вульф, Джеймс Бибери

Перевод: Профессиональный (полное дублирование) + Оригинал
Субтитры: Отсутствуют

Описание: Великолепный гонщик - при свете дня он выполняет каскадерские трюки на съёмочных площадках Голливуда, а по ночам ведет рискованную игру. Но один опасный контракт - и за его жизнь назначена награда. Теперь, чтобы остаться в живых и спасти свою очаровательную соседку, он должен делать то, что умеет лучше всего - виртуозно уходить от погоньДата премьеры (мир): 20 мая 2011
Дата премьеры (РФ): 3 ноября 2011, «UPI»
Качество: BDRip-AVC
Продолжительность: 01:40:41

Формат: MKV
Видео кодек: x264
Аудио кодек: AC3
Видео: 1024x436 (2,35:1), 23,976 fps, x264 ~ 2207 kbps avg, 0.206 bit/pixel
Аудио#1: 48 kHz, AC3, 6 ch, ~448 kbps avg | Профессиональный (полное дублирование)
Аудио#2: 48 kHz, AC3, 6 ch, ~448 kbps avg | Оригинал

MediaInfo ▼TextОбщее
Полное имя : Drayv.2011Drayv.2011.BDRip-AVC.mkv
Формат : Matroska
Версия формата : Version 2
Размер файла : 2,19 Гбайт
Продолжительность : 1 ч. 40 м.
Общий поток : 3106 Кбит/сек
Название фильма : Drayv.2011.BDRip-AVC
Дата кодирования : UTC 2011-12-11 22:52:18
Программа кодирования : mkvmerge v5.0.1 (Es ist Sommer) built on Oct 9 2011 11:55:43
Библиотека кодирования : libebml v1.2.2 + libmatroska v1.3.0
Видео
Идентификатор : 1
Формат : AVC
Формат/Информация : Advanced Video Codec
Профиль формата : [email protected]
Параметр CABAC формата : Да
Параметр ReFrames формата : 11 кадров
Идентификатор кодека : V_MPEG4/ISO/AVC
Продолжительность : 1 ч. 40 м.
Битрейт : 2207 Кбит/сек
Ширина : 1024 пикселя
Высота : 436 пикселей
Соотношение сторон : 2,35:1
Частота кадров : 23,976 кадра/сек
Цветовое пространство : YUV
Субдискретизация насыщенности : 4:2:0
Битовая глубина : 8 бит
Тип развёртки : Прогрессивная
Бит/(Пиксели*Кадры) : 0.206
Размер потока : 1,51 Гбайт (69%)
Заголовок : Источник Blu-ray
Библиотека кодирования : x264 core 119 r2106 07efeb4
Настройки программы : cabac=1 / ref=11 / deblock=1:-2:-1 / analyse=0x3:0x113 / me=umh / subme=9 / psy=1 / psy_rd=1.00:0.10 / mixed_ref=1 / me_range=32 / chroma_me=1 / trellis=1 / 8x8dct=1 / cqm=0 / deadzone=21,11 / fast_pskip=0 / chroma_qp_offset=-3 / threads=3 / sliced_threads=0 / nr=0 / decimate=1 / interlaced=0 / bluray_compat=0 / constrained_intra=0 / bframes=10 / b_pyramid=2 / b_adapt=1 / b_bias=0 / direct=3 / weightb=1 / open_gop=0 / weightp=0 / keyint=240 / keyint_min=23 / scenecut=40 / intra_refresh=0 / rc_lookahead=60 / rc=2pass / mbtree=1 / bitrate=2207 / ratetol=1.0 / qcomp=0.60 / qpmin=0 / qpmax=69 / qpstep=4 / cplxblur=20.0 / qblur=0.5 / ip_ratio=1.40 / aq=1:1.00
Язык : English
Default : Да
Forced : Нет
Аудио #1
Идентификатор : 2
Формат : AC-3
Формат/Информация : Audio Coding 3
Расширение режима : CM (complete main)
Идентификатор кодека : A_AC3
Продолжительность : 1 ч. 40 м.
Вид битрейта : Постоянный
Битрейт : 448 Кбит/сек
Каналы : 6 каналов
Расположение каналов : Front: L C R, Side: L R, LFE
Частота : 48,0 КГц
Битовая глубина : 16 бит
Метод сжатия : С потерями
Размер потока : 323 Мбайт (14%)
Заголовок : Источник Blu-ray
Язык : Russian
Default : Да
Forced : Нет
Аудио #2
Идентификатор : 3
Формат : AC-3
Формат/Информация : Audio Coding 3
Расширение режима : CM (complete main)
Идентификатор кодека : A_AC3
Продолжительность : 1 ч. 40 м.
Вид битрейта : Постоянный
Битрейт : 448 Кбит/сек
Каналы : 6 каналов
Расположение каналов : Front: L C R, Side: L R, LFE
Частота : 48,0 КГц
Битовая глубина : 16 бит
Метод сжатия : С потерями
Размер потока : 323 Мбайт (14%)
Заголовок : Источник Blu-ray
Язык : English
Default : Нет
Forced : Нет
Меню
00:00:00.000 : ru:00:00:00.000000000
00:05:00.000 : :00:05:00.000000000
00:10:00.0
469d1e7441d2cdcd821ebb58f20ed14d996dbaeaДрайв / Drive (Николас Виндинг Рёфн, боевик, триллер, драма, криминал, 2011) [BDRip-AVC, Профессиональный (полное дублирование) + Оригинал] Драйв / Drive (Николас Виндинг Рёфн, боевик, триллер, драма, криминал, 2011) [BDRip-AVC, Профессиональный (полное дублирование) + Оригинал] " />

Аплоадер: Админ, дата: 3-01-2012, 02:08, торрент скачан: 359 раз

Понравилась раздача? Посмотрите эти:
  • Лавлэйс / Lovelace (Роб Эпштейн, Джеффри Фридман, драма, биография, 2013) [ ...
  • Война миров Z / World War Z [Theatrical Cut] (Марк Форстер, ужасы, фантасти ...
  • Исходный код / Source Code (Дункан Джонс, фантастика, боевик, триллер, драм ...
  • Перелом / Fracture (Грегори Хоблит, Триллер, драма, криминал, детектив, 200 ...
  • Паркер / Parker (Тейлор Хэкфорд, Боевик, триллер, криминал, 2013) [BDRip-AV ...
  • Главное - не бояться! / A Little Bit of Heaven (Николь Кэссел / Nicole Kass ...
  • Соломенные псы / Straw Dogs (Род Лури, Триллер, драма, криминал , 2011) [BD ...
  • Драйв / Drive (Николас Виндинг Рёфн, боевик, триллер, драма, криминал, 2011 ...
  • Кожа, в которой я живу / La piel que habito (Педро Альмодовар, триллер, дра ...
  • Драйв / Drive (Николас Виндинг Рёфн, боевик, триллер, драма, криминал, 2011 ...
  • Челюсти 3D / Shark Night 3D ( Дэвид Р. Эллис, ужасы, 2011) [BDRip-AVC, Проф ...
  • Профессионал / Killer Elite (Гэри МакКендри, боевик, 2011) [BDRip-AVC, Проф ...
  • Люди Икс: Первый класс / X-Men: First Class (Мэттью Вон / Matthew Vaughn, ф ...
  • Подарок / Echelon Conspiracy (Грег Маркс, боевик, триллер, криминал, детект ...
  • Коломбиана [Театральная версия] / Colombiana [Theatrical Cut] (Оливье Мегат ...
  • Драйв / Drive (Николас Виндинг Рефн, триллер, драма, криминал, 2011) [BDRip ...
  • Заражение / Contagion (Стивен Содерберг, Фантастика, 2011) [BDRip 1080p, Пр ...
  • Девушка с татуировкой дракона / The Girl with the Dragon Tattoo (Дэвид Финч ...
  • Петля времени / Looper (Райан Джонсон, Фантастика, боевик, триллер, кримина ...
  • Опасный квартал / The Son of No One (Дито Монтиель,боевик, триллер, кримина ...
  • Драйв / Drive (Николас Виндинг Рёфн, боевик, триллер, драма, криминал, 201 ...
  • Драйв / Drive (Николас Виндинг Рёфн, боевик, триллер, драма, криминал, 2011 ...
  • Драйв / Drive (Николас Виндинг Рёфн, боевик, триллер, драма, криминал, 2011 ...
  • Драйв / Drive (Николас Виндинг Рёфн, боевик, триллер, драма, криминал, 2011 ...
  • Драйв / Drive (Николас Виндинг Рефн, триллер, драма, криминал, 2011) [BDRip ...
  • Информация
    Посетители, находящиеся в группе Гости, не могут оставлять комментарии к данной публикации.