вход на сайт

Имя пользователя :
Пароль :

Восстановление пароля Регистрация
Поля / Texas Killing Fields (Эми Канаан Манн, триллер, драма, криминал, история , 2011) [BDRip-AVC, Профессиональный (дублированный)]
Рейтинг:
(голосов: 1)



[img]{THEME}/images/logopost.png[/img]



Поля / Texas Killing Fields
Cлоган: «Место, откуда нет пути назад»

Год выпуска: 2011
Страна: США
Производство: Infinity Media, Anchor Bay Films, Block / Hanson, Blue Light.
Жанр: триллер, драма, криминал, история

Режиссёр: Эми Канаан Манн
В ролях: Сэм Уортингтон, Джеффри Дин Морган, Хлоя Грейс Морец, Джессика Честейн, Стивен Грэм, Кори Беркмейер, Трентон Перез, Морин Бреннан, Тони Бентли, Бекки Флю

Перевод: Профессиональный (дублированный)
Субтитры: Отсутствуют

Описание: В центре сюжета — два детектива: один местный техасец Майк Саудер, второй — переехавший из Нью-Йорка Брайан Хай. Герои в паре расследуют загадочные убийства жертв, найденных на Полях Смерти. Сложность в том, что места преступления как такового нет: всех жертв преступники привозят из других мест и просто сваливают в Техасе — отсюда и название Поля Смерти для этой области.

Внезапно из следователей детективы сами превращаются в жертв: преступники начинают играть с ними в кошки-мышки, подсовывая улики и донимая звонками с телефонов убитых. Когда они похищают местную девочку Энн, Саудер и Хай идут на все, чтобы найти ее.Качество: BDRip-AVC
Продолжительность: 01:44:42

Формат: MKV
Видео кодек: x264
Аудио кодек: AC3
Видео: 1152x480 (2.40:1), 24.000 fps, AVC, ~1605 Kbps, 0.121 bits/pixel
Аудио: 48 kHz, AC3 Dolby Digital, 3/2 (L,C,R,l,r) + LFE ch, ~384 kbps

MediaInfo ▼General
Unique ID : 201040086542403334237695559940595029651 (0x973EE98A7D22E2B581AB21683A7C9693)
Complete name : E:DownloadsPolia.chopper887.mkv
Format : Matroska
File size : 1.45 GiB
Duration : 1h 44mn
Overall bit rate : 1 987 Kbps
Movie name : Polia.chopper887
Encoded date : UTC 2011-12-27 17:11:00
Writing application : mkvmerge v4.8.0 (I Got The...) сборка от May 24 2011 03:12:58
Writing library : libebml v1.2.0 + libmatroska v1.1.0

Video
ID : 1
Format : AVC
Format/Info : Advanced Video Codec
Format profile : [email protected]
Format settings, CABAC : Yes
Format settings, ReFrames : 10 frames
Codec ID : V_MPEG4/ISO/AVC
Duration : 1h 44mn
Bit rate : 1 605 Kbps
Width : 1 152 pixels
Height : 480 pixels
Display aspect ratio : 2.40:1
Frame rate : 24.000 fps
Color space : YUV
Chroma subsampling : 4:2:0
Bit depth : 8 bits
Scan type : Progressive
Bits/(Pixel*Frame) : 0.121
Stream size : 1.14 GiB (79%)
Title : Polia.chopper887
Writing library : x264 core 116 r2074 2641b9e
Encoding settings : cabac=1 / ref=10 / deblock=1:-2:-1 / analyse=0x3:0x133 / me=umh / subme=11 / psy=1 / psy_rd=1.00:0.10 / mixed_ref=1 / me_range=32 / chroma_me=1 / trellis=2 / 8x8dct=1 / cqm=0 / deadzone=21,11 / fast_pskip=0 / chroma_qp_offset=-3 / threads=12 / sliced_threads=0 / nr=0 / decimate=1 / interlaced=0 / bluray_compat=0 / constrained_intra=0 / bframes=10 / b_pyramid=2 / b_adapt=2 / b_bias=0 / direct=3 / weightb=1 / open_gop=0 / weightp=2 / keyint=250 / keyint_min=24 / scenecut=40 / intra_refresh=0 / rc_lookahead=80 / rc=2pass / mbtree=1 / bitrate=1605 / ratetol=1.0 / qcomp=0.60 / qpmin=0 / qpmax=69 / qpstep=4 / cplxblur=20.0 / qblur=0.5 / ip_ratio=1.40 / aq=1:1.00
Language : English

Audio
ID : 2
Format : AC-3
Format/Info : Audio Coding 3
Mode extension : CM (complete main)
Codec ID : A_AC3
Duration : 1h 44mn
Bit rate mode : Constant
Bit rate : 384 Kbps
Channel(s) : 6 channels
Channel positions : Front: L C R, Side: L R, LFE
Sampling rate : 48.0 KHz
Bit depth : 16 bits
Compression mode : Lossy
Stream size : 288 MiB (19%)
Title : Dub

премьера (мир): 9 сентября 2011
премьера (РФ): 24 ноября 2011, «Top Film Distribution»


Наши рипы / Набор в РГ/Стол заказов РГ / Стол заказов по РИПам


addd3a717590eb543945eae734602101e28bf917Поля / Texas Killing Fields (Эми Канаан Манн, триллер, драма, криминал, история , 2011) [BDRip-AVC, Профессиональный (дублированный)] Поля / Texas Killing Fields (Эми Канаан Манн, триллер, драма, криминал, история , 2011) [BDRip-AVC, Профессиональный (дублированный)] " />

Аплоадер: Админ, дата: 27-12-2011, 23:29, торрент скачан: 359 раз

Понравилась раздача? Посмотрите эти:
  • Коломбиана / Colombiana (Оливье Мегатон, боевик, триллер, драма, приключени ...
  • Аноним / Anonymous (Роланд Эммерих, триллер, драма, 2011) [BDRip-AVC, Профе ...
  • Соблазнитель / Kokowaah (Тиль Швайгер, мелодрама, комедия, 2010) [BDRip-AVC ...
  • Профессионал / Killer Elite (Гэри МакКендри , боевик, триллер, криминал, 20 ...
  • Поля / Texas Killing Fields (Эми Канаан Манн, Триллер, 2011) [BDRip - AVC, ...
  • Голодный кролик атакует / Seeking Justice (Роджер Дональдсон / Roger Donald ...
  • Хранитель времени / Hugo (Мартин Скорсезе, Драма, 2011) [BDRip-AVC, Професс ...
  • Хранитель времени / Hugo (Мартин Скорсезе, Драма, 2011) [BDRip-AVC, Професс ...
  • Похищенная / A Lonely Place to Die (Джулиан Джилби, триллер, криминал, прик ...
  • Курьер / The Courier (Хани Абу-Ассад, боевик, триллер, криминал, 2011) [HDR ...
  • Лица в толпе / Faces in the Crowd (Жюльен Манья, триллер, драма, 2011) [BDR ...
  • Поля / Texas Killing Fields (Эми Канаан Манн, триллер, драма, криминал, ист ...
  • Mylene Farmer / Du Temps [2011, Pop, HDTVRip]
  • Mylene Farmer / Bleu Noir [2011, Pop, HDTVRip]
  • Поля / Texas Killing Fields (Эми Канаан Манн, триллер, драма, криминал, ист ...
  • Поля / Texas Killing Fields (Эми Канаан Манн / Ami Canaan Mann,триллер, дра ...
  • Поля / Texas Killing Fields (Эми Канаан Манн / Ami Canaan Mann,триллер, дра ...
  • Поля / Texas Killing Fields (Эми Канаан Манн, триллер, драма, криминал, ист ...
  • Поля / Texas Killing Fields (Эми Канаан Манн, триллер, драма, криминал, ист ...
  • Поля / Texas Killing Fields (Эми Канаан Манн / Ami Canaan Mann, Триллер, др ...
  • Информация
    Посетители, находящиеся в группе Гости, не могут оставлять комментарии к данной публикации.