вход на сайт

Имя пользователя :
Пароль :

Восстановление пароля Регистрация
Аноним / Anonymous (Роланд Эммерих, триллер, драма, 2011) [BDRip-AVC, Профессиональный (дублированный)]
Рейтинг:
(голосов: 1)



[img]{THEME}/images/logopost.png[/img]



Аноним / Anonymous
Cлоган: «Что скрывает имя Шекспир?»

Год выпуска: 2011
Страна: Германия ,Великобритания
Производство: Centropolis Entertainment, Columbia Pictures, elativity Media, Studio Babelsberg Motion Pictures GmbH
Жанр: триллер, драма

Режиссёр: Роланд Эммерих
В ролях: Рис Иванс, Ванесса Редгрейв, Себастьян Фернандес-Арместо, Рейф Сполл, Дэвид Тьюлис, Эдвард Хогг, Ксавьер Сэмюэл, Сэм Рейд, Джейми Кэмпбелл Бауэр, Джоэли Ричардсон

Перевод: Профессиональный (дублированный)
Субтитры: Отсутствуют

Описание: Фильм даст совершенно неожиданный ответ на извечный вопрос: а кем же «был или не был» Шекспир, и кто на самом деле скрывается за этим всемирно известным именем великого человека?Качество: BDRip-AVC
Продолжительность: 02:10:05

Формат: MKV
Видео кодек: x264
Аудио кодек: AC3
Видео: 976x416 (2.35:1), 23.976 fps, AVC, ~1215 Kbps, 0.125 bits/pixel
Аудио: 48 kHz, AC3 Dolby Digital, 3/2 (L,C,R,l,r) + LFE ch, ~384.00 kbps avg

MediaInfo ▼General
Unique ID : 251125691640864349927733538351845992746 (0xBCED0C86E9BCEA1EB1365AAA5E23E92A)
Complete name : E:DownloadsAnonim.chopper887.mkv
Format : Matroska
File size : 1.45 GiB
Duration : 2h 10mn
Overall bit rate : 1 599 Kbps
Movie name : Anonim.chopper887
Encoded date : UTC 2011-12-25 06:28:33
Writing application : mkvmerge v4.8.0 (I Got The...) сборка от May 24 2011 03:12:58
Writing library : libebml v1.2.0 + libmatroska v1.1.0

Video
ID : 1
Format : AVC
Format/Info : Advanced Video Codec
Format profile : [email protected]
Format settings, CABAC : Yes
Format settings, ReFrames : 10 frames
Codec ID : V_MPEG4/ISO/AVC
Duration : 2h 10mn
Bit rate : 1 215 Kbps
Width : 976 pixels
Height : 416 pixels
Display aspect ratio : 2.35:1
Frame rate : 23.976 fps
Color space : YUV
Chroma subsampling : 4:2:0
Bit depth : 8 bits
Scan type : Progressive
Bits/(Pixel*Frame) : 0.125
Stream size : 1.08 GiB (74%)
Title : Anonim.chopper887
Writing library : x264 core 120 r2120 0c7dab9
Encoding settings : cabac=1 / ref=10 / deblock=1:-2:-1 / analyse=0x3:0x133 / me=umh / subme=11 / psy=1 / psy_rd=0.90:0.00 / mixed_ref=1 / me_range=32 / chroma_me=1 / trellis=2 / 8x8dct=1 / cqm=0 / deadzone=21,11 / fast_pskip=0 / chroma_qp_offset=-2 / threads=12 / sliced_threads=0 / nr=0 / decimate=1 / interlaced=0 / bluray_compat=0 / constrained_intra=0 / bframes=9 / b_pyramid=2 / b_adapt=2 / b_bias=0 / direct=3 / weightb=1 / open_gop=0 / weightp=2 / keyint=250 / keyint_min=23 / scenecut=40 / intra_refresh=0 / rc_lookahead=80 / rc=2pass / mbtree=1 / bitrate=1215 / ratetol=1.0 / qcomp=0.60 / qpmin=10 / qpmax=51 / qpstep=4 / cplxblur=20.0 / qblur=0.5 / ip_ratio=1.40 / aq=1:1.00
Language : English

Audio
ID : 2
Format : AC-3
Format/Info : Audio Coding 3
Mode extension : CM (complete main)
Codec ID : A_AC3
Duration : 2h 10mn
Bit rate mode : Constant
Bit rate : 384 Kbps
Channel(s) : 6 channels
Channel positions : Front: L C R, Side: L R, LFE
Sampling rate : 48.0 KHz
Bit depth : 16 bits
Compression mode : Lossy
Stream size : 357 MiB (24%)
Title : Dub

премьера (мир): 11 сентября 2011
премьера (РФ): 17 ноября 2011, «WDSSPR»


Наши рипы / Набор в РГ/Стол заказов РГ / Стол заказов по РИПам


df85385a864c12f0b604d999a0e90a4140a43d74Аноним / Anonymous (Роланд Эммерих, триллер, драма, 2011) [BDRip-AVC, Профессиональный (дублированный)] Аноним / Anonymous (Роланд Эммерих, триллер, драма, 2011) [BDRip-AVC, Профессиональный (дублированный)] " />

Аплоадер: Админ, дата: 25-12-2011, 13:09, торрент скачан: 359 раз

Понравилась раздача? Посмотрите эти:
  • Аноним / Anonymous (Роланд Эммерих, Триллер, 2011) [BDRip - AVC, Дубляж]
  • Соблазнитель / Kokowaah (Тиль Швайгер, мелодрама, комедия, 2010) [BDRip-AVC ...
  • Аноним / Anonymous (Роланд Эммерих, Триллер, 2011) [BDRip - AVC, Дубляж + У ...
  • Профессионал / Killer Elite (Гэри МакКендри , боевик, триллер, криминал, 20 ...
  • Аноним / Anonymous (Роланд Эммерих , триллер, драма, 2011) [HDRip-AVC, Проф ...
  • Аноним / Anonymous (Роланд Эммерих, триллер, драма, 2011) [BDRip-AVC, Профе ...
  • Голодный кролик атакует / Seeking Justice (Роджер Дональдсон, боевик, 2011) ...
  • Голодный кролик атакует / Seeking Justice (Роджер Дональдсон / Roger Donald ...
  • Хранитель времени / Hugo (Мартин Скорсезе, Драма, 2011) [BDRip-AVC, Професс ...
  • Похищенная / A Lonely Place to Die (Джулиан Джилби, триллер, криминал, прик ...
  • Экстрасенс / The Awakening (Ник Мерфи, ужасы, триллер, 2011) [BDRip-AVC, Ду ...
  • Курьер / The Courier (Хани Абу-Ассад, боевик, триллер, криминал, 2011) [HDR ...
  • Лица в толпе / Faces in the Crowd (Жюльен Манья, триллер, драма, 2011) [BDR ...
  • Черное золото / Black Gold (Жан-Жак Анно, Драма, 2011) [BDRip-AVC, Професси ...
  • Аноним / Anonymous (Роланд Эммерих, триллер, драма, 2011) [BDRip 720p, Проф ...
  • Mylene Farmer / Du Temps [2011, Pop, HDTVRip]
  • Mylene Farmer / Bleu Noir [2011, Pop, HDTVRip]
  • Аноним / Anonymous (Роланд Эммерих , триллер, драма, 2011) [DVD 9, Професси ...
  • Дом грёз / Dream House (Джим Шеридан / Jim Sheridan, триллер, драма, детект ...
  • Аноним / Anonymous (Роланд Эммерих, триллер, драма, 2011 г) [320x240] [DVDR ...
  • Аноним / Anonymous (Роланд Эммерих, триллер, драма, 2011) [HDRip, Профессио ...
  • Аноним / Anonymous (Роланд Эммерих , триллер, драма, 2011) [HDRip, Професси ...
  • Аноним / Anonymous (Роланд Эммерих / Roland Emmerich, триллер, драма, 2011) ...
  • Аноним / Anonymous (Роланд Эммерих , триллер, драма, 2011) [BDRip, Професси ...
  • Аноним / Anonymous (Роланд Эммерих, триллер, драма, 2011) [HDRip, Профессио ...
  • Информация
    Посетители, находящиеся в группе Гости, не могут оставлять комментарии к данной публикации.