вход на сайт

Имя пользователя :
Пароль :

Восстановление пароля Регистрация
Кожа, в которой я живу / La piel que habito (Педро Альмодовар, триллер, драма, 2011) [BDRip-AVC, Дубляж]
Рейтинг:
(голосов: 1)



[img]{THEME}/images/logopost.png[/img]



Кожа, в которой я живу / La piel que habito

Год выпуска: 2011
Страна: Испания
Производство: Canal+ España
Жанр: триллер, драма

Режиссёр: (Педро Альмодовар
В ролях: Антонио Бандерас, Елена Анайя, Мариса Паредес, Бланка Суарез, Жан Корнет, Барбара Ленни, Фернандо Кайо, Эдуард Фернандес, Роберто Аламо, Агустин Альмодовар, Хосе Луис Гомес, Сьюзи Санчез, Эстер Гарсия, Ана Мена, Чема Руис, Дэвид Вила, Джорди Вилальта

Перевод: Профессиональный (полное дублирование) [лицензия]
Субтитры:нет

Описание
Гений пластической хирургии д-р Ледгард, путем дерзких генетических экспериментов создавший искусственную человеческую кожу, ведет охоту на подонка, который много лет назад изнасиловал его дочь. Жестокость его мести не знает предела…



Доп. информация

Премьеры ▼премьера (мир) 19 мая 2011
премьера (РФ) 22 сентября 2011

Рейтинг MPAA ▼
лицам до 17 лет обязательно присутствие взрослого

"MediaInfo" ▼TextОбщее
Полное имя : Kozha.v.kotoroj.ja.zhivu.2011Kozha.v.kotoroj.ja.zhivu.2011.BDRip-AVC.1,46.mkv
Формат : Matroska
Версия формата : Version 2
Размер файла : 1,46 Гбайт
Продолжительность : 2 ч. 0 м.
Общий поток : 1734 Кбит/сек
Название фильма : Kozha.v.kotoroj.ja.zhivu.2011.BDRip-AVC.1,46
Дата кодирования : UTC 2011-12-11 08:18:11
Программа кодирования : mkvmerge v5.0.1 (Es ist Sommer) built on Oct 9 2011 11:55:43
Библиотека кодирования : libebml v1.2.2 + libmatroska v1.3.0
Видео
Идентификатор : 1
Формат : AVC
Формат/Информация : Advanced Video Codec
Профиль формата : [email protected]
Параметр CABAC формата : Да
Параметр ReFrames формата : 11 кадров
Идентификатор кодека : V_MPEG4/ISO/AVC
Продолжительность : 2 ч. 0 м.
Битрейт : 1284 Кбит/сек
Ширина : 768 пикселей
Высота : 416 пикселей
Соотношение сторон : 16:9
Частота кадров : 24,000 кадра/сек
Цветовое пространство : YUV
Субдискретизация насыщенности : 4:2:0
Битовая глубина : 8 бит
Тип развёртки : Прогрессивная
Бит/(Пиксели*Кадры) : 0.167
Размер потока : 1,05 Гбайт (72%)
Заголовок : Источник Blu-ray
Библиотека кодирования : x264 core 119 r2106 07efeb4
Настройки программы : cabac=1 / ref=11 / deblock=1:-2:-1 / analyse=0x3:0x113 / me=umh / subme=9 / psy=1 / psy_rd=1.00:0.10 / mixed_ref=1 / me_range=32 / chroma_me=1 / trellis=1 / 8x8dct=1 / cqm=0 / deadzone=21,11 / fast_pskip=0 / chroma_qp_offset=-3 / threads=3 / sliced_threads=0 / nr=0 / decimate=1 / interlaced=0 / bluray_compat=0 / constrained_intra=0 / bframes=10 / b_pyramid=2 / b_adapt=1 / b_bias=0 / direct=3 / weightb=1 / open_gop=0 / weightp=0 / keyint=240 / keyint_min=23 / scenecut=40 / intra_refresh=0 / rc_lookahead=60 / rc=2pass / mbtree=1 / bitrate=1284 / ratetol=1.0 / qcomp=0.60 / qpmin=0 / qpmax=69 / qpstep=4 / cplxblur=20.0 / qblur=0.5 / ip_ratio=1.40 / aq=1:1.00
Язык : English
Default : Да
Forced : Нет
Аудио
Идентификатор : 2
Формат : AC-3
Формат/Информация : Audio Coding 3
Расширение режима : CM (complete main)
Идентификатор кодека : A_AC3
Продолжительность : 2 ч. 0 м.
Вид битрейта : Постоянный
Битрейт : 448 Кбит/сек
Каналы : 6 каналов
Расположение каналов : Front: L C R, Side: L R, LFE
Частота : 48,0 КГц
Битовая глубина : 16 бит
Метод сжатия : С потерями
Размер потока : 385 Мбайт (26%)
Заголовок : Источник Blu-ray
Язык : Russian
Default : Да
Forced : Нет
Текст
Идентификатор : 3
Формат : UTF-8
Идентификатор кодека : S_TEXT/UTF8
Идентификатор кодека/Информация : UTF-8 Plain Text
Заголовок : Источник Blu-ray
Язык : Russian
Default : Нет
Forced : Нет
Меню
00:00:00.000 : ru:00:00:00.000000000
00:05:00.000 : :00:05:00.000000000
00:10:00.000 : :00:10:00.000000000
00:15:00.000 : :00:15:00.000000000
00:20:00.000 : :00:20:00.000000000
00:25:00.000 : :00:25:00.000000000
00:30:00.000 : :00:30:00.000000000
00:35:00.000 : :00:35:00.000000000
00:40:00.000 : :00:40:00.000000000
00:45:00.000 : :00:45:00.000000000
00:50:00.000 : :00:50:00.000000000
00:55:00.000 : :00:55:00.000000000
01:00:00.000 : :01:00:00.000000000
01:05:00.000 : :01:05:00.000000000
01:10:00.000 : :01:10:00.000000000
01:15:0
81873c8376cea7b3401af521b325e0bb0cf7ba8fКожа, в которой я живу / La piel que habito (Педро Альмодовар, триллер, драма, 2011) [BDRip-AVC, Дубляж] Кожа, в которой я живу / La piel que habito (Педро Альмодовар, триллер, драма, 2011) [BDRip-AVC, Дубляж] " />

Аплоадер: Админ, дата: 11-12-2011, 17:16, торрент скачан: 359 раз

Понравилась раздача? Посмотрите эти:
  • Я очень возбужден / Los amantes pasajeros (Педро Альмодовар, Комедия, 2013) ...
  • Кожа, в которой я живу / La piel que habito (Педро Альмодовар, ужасы, трилл ...
  • Главное - не бояться! / A Little Bit of Heaven (Николь Кэссел / Nicole Kass ...
  • Соломенные псы / Straw Dogs (Род Лури, Триллер, драма, криминал , 2011) [BD ...
  • Кожа, в которой я живу / La piel que habito (Педро Альмодовар, Триллер, 201 ...
  • Заражение / Contagion (Стивен Содерберг, триллер, драма, 2011) [BDRip-AVC, ...
  • Кожа, в которой я живу / La piel que habito (Педро Альмодовар, триллер, дра ...
  • Челюсти 3D / Shark Night 3D ( Дэвид Р. Эллис, ужасы, 2011) [BDRip-AVC, Проф ...
  • Драйв / Drive (Николас Виндинг Рёфн, боевик, триллер, драма, криминал, 2011 ...
  • Профессионал / Killer Elite (Гэри МакКендри, боевик, 2011) [BDRip-AVC, Проф ...
  • Закон доблести / Act of Valor (Майк МакКой, Скотт Во, боевик, триллер, прик ...
  • Морской бой / Battleship (Питер Берг, фантастика, боевик, триллер, приключе ...
  • Кожа, в которой я живу / La piel que habito (Педро Альмодовар, Триллер, 201 ...
  • Кожа, в которой я живу / La piel que habito (Педро Альмодовар, Триллер, 201 ...
  • Заражение / Contagion (Стивен Содерберг, Фантастика, 2011) [BDRip 1080p, Пр ...
  • Кожа, в которой я живу / The Skin I Live In (Педро Альмодовар, Триллер, Дра ...
  • Кожа, в которой я живу / La piel que habito (Педро Альмодовар, триллер, дра ...
  • Кожа, в которой я живу / La piel que habito (Педро Альмодовар, триллер, дра ...
  • Кожа, в которой я живу / La piel que habito (Педро Альмодовар, триллер, дра ...
  • Кожа, в которой я живу / La piel que habito (Педро Альмодовар, триллер, дра ...
  • Информация
    Посетители, находящиеся в группе Гости, не могут оставлять комментарии к данной публикации.