вход на сайт

Имя пользователя :
Пароль :

Восстановление пароля Регистрация
Драйв / Drive (Николас Виндинг Рёфн, боевик, триллер, драма, криминал, 2011) [BDRip-AVC, Профессиональный (полное дублирование)]
Рейтинг:
(голосов: 1)



[img]{THEME}/images/logopost.png[/img]



Драйв / Drive
Cлоган: «Some Heroes Are Real»

Год выпуска: 2011
Страна: США
Производство: Bold Films, Odd Lot Entertainment
Жанр: триллер, драма, криминал

Режиссёр: Николас Виндинг Рефн
В ролях: Райан Гослинг, Кэри Маллиган, Брайан Крэнстон, Альберт Брукс, Оскар Айзек, Кристина Хендрикс, Рон Перлман, Каден Леос, Джефф Вульф, Джеймс Бибери

Перевод: Профессиональный (полное дублирование)
Субтитры: Отсутствуют

Описание: Великолепный гонщик — при свете дня он выполняет каскадерские трюки на съёмочных площадках Голливуда, а по ночам ведет рискованную игру. Но один опасный контракт — и за его жизнь назначена награда. Теперь, чтобы остаться в живых и спасти свою очаровательную соседку, он должен делать то, что умеет лучше всего — виртуозно уходить от погонКачество: BDRip-AVC
Продолжительность: 01:40:48

Формат: MKV
Видео кодек: х264
Аудио кодек: AC3
Видео: 1024x432 (2.35:1), 25 fps,~1617 kbps avg, 0.152 bit/pixel
Аудио: 48 kHz, AC3 Dolby Digital, 3/2 (L,C,R,l,r) + LFE ch, ~448 kbps

MediaInfo ▼TextОбщее
Полное имя : Drayv.2011.D.BDRip-AVC.mkv
Формат : Matroska
Версия формата : Version 2
Размер файла : 1,46 Гбайт
Продолжительность : 1 ч. 40 м.
Общий поток : 2067 Кбит/сек
Дата кодирования : UTC 2011-12-10 12:34:20
Программа кодирования : mkvmerge v5.1.0 (And so it goes) built on Nov 28 2011 23:58:28
Библиотека кодирования : libebml v1.2.3 + libmatroska v1.3.0

Видео
Идентификатор : 1
Формат : AVC
Формат/Информация : Advanced Video Codec
Профиль формата : [email protected]
Параметр CABAC формата : Да
Параметр ReFrames формата : 11 кадров
Идентификатор кодека : V_MPEG4/ISO/AVC
Продолжительность : 1 ч. 40 м.
Битрейт : 1617 Кбит/сек
Ширина : 1024 пикселя
Высота : 432 пикселя
Соотношение сторон : 2,35:1
Частота кадров : 23,976 кадра/сек
Цветовое пространство : YUV
Субдискретизация насыщенности : 4:2:0
Битовая глубина : 8 бит
Тип развёртки : Прогрессивная
Бит/(Пиксели*Кадры) : 0.152
Размер потока : 1,11 Гбайт (76%)
Библиотека кодирования : x264 core 119 r2106 07efeb4
Настройки программы : cabac=1 / ref=11 / deblock=1:-2:-1 / analyse=0x3:0x113 / me=umh / subme=9 / psy=1 / psy_rd=1.00:0.10 / mixed_ref=1 / me_range=32 / chroma_me=1 / trellis=2 / 8x8dct=1 / cqm=0 / deadzone=21,11 / fast_pskip=1 / chroma_qp_offset=-3 / threads=4 / sliced_threads=0 / nr=0 / decimate=1 / interlaced=0 / bluray_compat=0 / constrained_intra=0 / bframes=11 / b_pyramid=2 / b_adapt=2 / b_bias=0 / direct=3 / weightb=1 / open_gop=0 / weightp=0 / keyint=240 / keyint_min=23 / scenecut=40 / intra_refresh=0 / rc_lookahead=80 / rc=2pass / mbtree=1 / bitrate=1617 / ratetol=1.0 / qcomp=0.60 / qpmin=0 / qpmax=69 / qpstep=4 / cplxblur=20.0 / qblur=0.5 / ip_ratio=1.40 / aq=2:0.90
Язык : English
Default : Да
Forced : Нет

Аудио
Идентификатор : 2
Формат : AC-3
Формат/Информация : Audio Coding 3
Расширение режима : CM (complete main)
Идентификатор кодека : A_AC3
Продолжительность : 1 ч. 40 м.
Вид битрейта : Постоянный
Битрейт : 448 Кбит/сек
Каналы : 6 каналов
Расположение каналов : Front: L C R, Side: L R, LFE
Частота : 48,0 КГц
Битовая глубина : 16 бит
Метод сжатия : С потерями
Размер потока : 323 Мбайт (22%)
Язык : Russian
Default : Да
Forced : Нет

премьера (мир): 20 мая 2011
премьера (РФ): 3 ноября 2011, «UPI»
релиз на DVD: 29 ноября 2011, «Парадиз Видео»

Наши рипы / Набор в РГ/Стол заказов РГ / Стол заказов по РИПам


b2ceb1940cb43df1d2e95371f24d930514049c4aДрайв / Drive (Николас Виндинг Рёфн, боевик, триллер, драма, криминал, 2011) [BDRip-AVC, Профессиональный (полное дублирование)] Драйв / Drive (Николас Виндинг Рёфн, боевик, триллер, драма, криминал, 2011) [BDRip-AVC, Профессиональный (полное дублирование)] " />

Аплоадер: Админ, дата: 10-12-2011, 20:05, торрент скачан: 359 раз

Понравилась раздача? Посмотрите эти:
  • Двойной агент / The Double (Майкл Брандт, боевик, триллер, драма, криминал, ...
  • Исходный код / Source Code (Дункан Джонс, фантастика, боевик, триллер, драм ...
  • Паркер / Parker (Тейлор Хэкфорд, Боевик, триллер, криминал, 2013) [BDRip-AV ...
  • Драйв / Drive (Николас Виндинг Рёфн, боевик, триллер, драма, криминал, 2011 ...
  • Заражение / Contagion (Стивен Содерберг, триллер, драма, 2011) [BDRip-AVC, ...
  • Челюсти 3D / Shark Night 3D ( Дэвид Р. Эллис, ужасы, 2011) [BDRip-AVC, Проф ...
  • Драйв / Drive (Николас Виндинг Рёфн, боевик, триллер, драма, криминал, 2011 ...
  • Профессионал / Killer Elite (Гэри МакКендри, боевик, 2011) [BDRip-AVC, Проф ...
  • Люди Икс: Первый класс / X-Men: First Class (Мэттью Вон / Matthew Vaughn, ф ...
  • Коломбиана [Театральная версия] / Colombiana [Theatrical Cut] (Оливье Мегат ...
  • Драйв / Drive (Николас Виндинг Рефн, триллер, драма, криминал, 2011) [BDRip ...
  • Девушка с татуировкой дракона / The Girl with the Dragon Tattoo (Дэвид Финч ...
  • Схватка / The Grey (Джо Карнахан, боевик, триллер, драма, приключения, 2012 ...
  • Петля времени / Looper (Райан Джонсон, Фантастика, боевик, триллер, кримина ...
  • Опасный квартал / The Son of No One (Дито Монтиель,боевик, триллер, кримина ...
  • Драйв / Drive (Николас Виндинг Рёфн, боевик, триллер, драма, криминал, 201 ...
  • Драйв / Drive (Николас Виндинг Рёфн, боевик, триллер, драма, криминал, 2011 ...
  • Драйв / Drive (Николас Виндинг Рёфн, боевик, триллер, драма, криминал, 2011 ...
  • Драйв / Drive (Николас Виндинг Рёфн, боевик, триллер, драма, криминал, 2011 ...
  • Драйв / Drive (Николас Виндинг Рефн, триллер, драма, криминал, 2011) [BDRip ...
  • Информация
    Посетители, находящиеся в группе Гости, не могут оставлять комментарии к данной публикации.