вход на сайт

Имя пользователя :
Пароль :

Восстановление пароля Регистрация
Немыслимое / Unthinkable (Грегор Джордан, триллер, драма, 2009) [HDRip - AVC, Профессиональный (многоголосый, закадровый)] by Torrent Club
Рейтинг:
(голосов: 1)



[img]{THEME}/images/logopost.png[/img]



Немыслимое / Unthinkable

Слоган "На войне без правил законов нет"

Год выпуска: 2009
Страна: США
Производство: Sidney Kimmel Entertainment / Senator Entertainment Co
Жанр: триллер, драма

Режиссёр: Грегор Джордан
В ролях: Сэмюэл Л. Джексон, Майкл Шин, Брэндон Рут, Кэрри-Энн Мосс, Стивен Рут, Джил Беллоуз, Некар Задеган, Мартин Донован, Яра Шахиди, Саша Ройз

Перевод: Профессиональный (многоголосый, закадровый)
Субтитры: отсутствуют

Описание:
Что будет, если военнослужащий американской армии примет ислам и заложит три ядерных заряда в крупнейших городах Америки? Как заставить его выдать места закладки до подрыва? Что делать, если террорист готов ко всему, что с ним могут сделать по закону?



Доп. информация:

Релиз от :
Рейтинг MPAA: ▼Рейтинг R - Детям до 17 лет обязательно присутствие родителей
Премьера: ▼премьера (мир) 5 ноября 2009
премьера (РФ) 7 октября 2010, «Top Film Distribution»
релиз на DVD 28 октября 2010, «Новый Диск», «New Dream media»

Тех. данные:
Качество: HDRip - AVC
Продолжительность: 01:37:28 час.

Формат: MKV
Видео кодек: x264
Аудио кодек: AС3
Видео: 1024x552 (1,855), 23.976 fps, Advanced Video Codec ~1754 kbps avg, 0.129 bit/pixel
Аудио: 48 kHz, Audio Coding 3, 6 ch (Front: L C R, Side: L R, LFE), ~384.00 kbps avg
MediaInfo: ▼TextОбщее
Уникальный идентификатор : 172424276339430673081792040122551803605 (0x81B7B52B7176C7D099DDB7FA67D29ED5)
Полное имя : C:UsersШапагатDownloads
emyslimoe.2009.hdrip-avc..mkv
Формат : Matroska
Размер файла : 1,45 Гбайт
Продолжительность : 1 ч. 37 м.
Общий поток : 2139 Кбит/сек
Дата кодирования : UTC 2011-06-28 05:25:39
Программа кодирования : mkvmerge v4.6.0 (Still Crazy After All These Years) сборка от Apr 1 2011 21:01:49
Библиотека кодирования : libebml v1.2.0 + libmatroska v1.1.0

Видео
Идентификатор : 1
Формат : AVC
Формат/Информация : Advanced Video Codec
Профиль формата : [email protected]
Параметр CABAC формата : Да
Параметр ReFrames формата : 8 кадров
Идентификатор кодека : V_MPEG4/ISO/AVC
Продолжительность : 1 ч. 37 м.
Битрейт : 1754 Кбит/сек
Ширина : 1024 пикс.
Высота : 552 пикс.
Соотношение сторон : 1,855
Частота кадров : 23,976 кадр/сек
Цветовое пространство : YUV
Подвыборка цветности : 4:2:0
Битовая глубина : 8 бит
Тип развёртки : Прогрессивная
Бит/(Пиксели*Кадры) : 0.129
Размер потока : 1,16 Гбайт (80%)
Библиотека кодирования : x264 core 115 r1937 aa21558
Настройки программы : cabac=1 / ref=8 / deblock=1:-1:-1 / analyse=0x3:0x133 / me=umh / subme=7 / psy=1 / psy_rd=1.00:0.10 / mixed_ref=1 / me_range=16 / chroma_me=1 / trellis=2 / 8x8dct=1 / cqm=0 / deadzone=21,11 / fast_pskip=0 / chroma_qp_offset=-3 / threads=3 / sliced_threads=0 / nr=0 / decimate=1 / interlaced=0 / bluray_compat=0 / constrained_intra=0 / bframes=3 / b_pyramid=2 / b_adapt=2 / b_bias=0 / direct=3 / weightb=1 / open_gop=0 / weightp=2 / keyint=250 / keyint_min=23 / scenecut=40 / intra_refresh=0 / rc_lookahead=50 / rc=2pass / mbtree=1 / bitrate=1754 / ratetol=1.0 / qcomp=0.60 / qpmin=0 / qpmax=69 / qpstep=4 / cplxblur=20.0 / qblur=0.5 / ip_ratio=1.40 / aq=1:1.00

Аудио
Идентификатор : 2
Формат : AC-3
Формат/Информация : Audio Coding 3
Расширение режима : CM (complete main)
Идентификатор кодека : A_AC3
Продолжительность : 1 ч. 37 м.
Вид битрейта : Постоянный
Битрейт : 384 Кбит/сек
Каналы : 6 каналов
Расположение каналов : Front: L C R, Side: L R, LFE
Частота : 48,0 КГц
Битовая глубина : 16 бит
Метод сжатия : С потерями
Размер потока : 267 Мбайт (18%)
Раздача группы: Наши раздачи
Набор в группу




2c0b21c467b7ab3f48cf8b0ddda071783ce1a59aНемыслимое / Unthinkable (Грегор Джордан, триллер, драма, 2009) [HDRip - AVC, Профессиональный (многоголосый, закадровый)] by Torrent Club Немыслимое / Unthinkable (Грегор Джордан, триллер, драма, 2009) [HDRip - AVC, Профессиональный (многоголосый, закадровый)] by Torrent Club " />

Аплоадер: Админ, дата: 1-07-2011, 10:32, торрент скачан: 359 раз

Понравилась раздача? Посмотрите эти:
  • Голливудский мусор / Garbage (Филипп Волкен, драма, комедия, 2013) [HDTVRip ...
  • Клин клином / Fire with Fire (Дэвид Баррет, боевик, триллер, криминал, 2012 ...
  • Немыслимое / Unthinkable (Грегор Джордан, Триллер, драма, 2009) [BDRip-AVC, ...
  • Суррогат / The Sessions (Бен Луин, Драма, 2012) [BDRip-AVC, Профессиональны ...
  • Банда Келли / Ned Kelly (Грегор Джордан, Боевик, Криминал, Приключения, Вес ...
  • Измученный / The Tortured (Роберт Либерман, ужасы, триллер, драма, 2010) [H ...
  • Белый слон / Elephant White (Прачья Пинкаю, боевик, триллер, криминал, 2011 ...
  • Двенадцать / Twelve (Джоэл Шумахер, триллер, драма, 2010) [HDRip-AVC, Профе ...
  • Путь воина / The Warriors Way (Снгму Ли, фэнтези, боевик, вестерн, 2010) [H ...
  • Путь воина / The Warriors Way (Снгму Ли, фэнтези, боевик, вестерн, 2010) [H ...
  • Человек с Земли / The Man from Earth (Ричард Шенкман, фантастика, драма, 20 ...
  • Девушка по вызову / The Girlfriend Experience (Стивен Содерберг, Драма, 200 ...
  • Страшно красив / Beastly (Даниел Барнз, фэнтези, драма, мелодрама, 2011) [H ...
  • Иностранный легион / La cité (Ким Нгуйен / Kim Nguyen, драма, 2010) [DVDRip ...
  • Немыслимое / Unthinkable (Грегор Джордан , триллер, драма, 2010) [BDRip-AVC ...
  • Финишная прямая / La ligne droite (Режис Варнье, драма, спорт, 2011) [HDRip ...
  • Немыслимое / Unthinkable (Грегор Джордан, триллер, драма, 2009) [BDRip 720p ...
  • Павшая империя / Hirokin (Алехо Мо-Сан, фантастика, боевик, драма, приключе ...
  • Немыслимое / Unthinkable (Грегор Джордан, триллер, драма, 2010) [HDRip,Проф ...
  • Немыслимое [Расширенная версия] / Unthinkable [Extended Cut] (Грегор Джорда ...
  • Информация
    Посетители, находящиеся в группе Гости, не могут оставлять комментарии к данной публикации.