вход на сайт

Имя пользователя :
Пароль :

Восстановление пароля Регистрация
Убийца внутри меня / The Killer Inside Me (Майкл Уинтерботтом / Michael Winterbottom, Триллер, драма, криминал 2010) [HDRip-AVC , Профессиональный (дублированный)]
Рейтинг:
(голосов: 1)



[img]{THEME}/images/logopost.png[/img]



Убийца внутри меня / The Killer Inside Me

Год выпуска: 2010
Страна: США , Швеция , Канада , Великобритания
Производство: Hero Entertainment
Жанр: Триллер, драма, криминал

Режиссёр: Майкл Уинтерботтом / Michael Winterbottom
В ролях: Кейси Аффлек, Кейт Хадсон, Джессика Альба, Нед Битти, Элиас Котеас, Том Бауэр, Саймон Бейкер, Билл Пуллман, Брент Бриско, Мэттью Мехeр

Перевод: Профессиональный (дублированный)
Субтитры: Отсутствуют

Описание: Помощник шерифа Лу Форд - настоящий техасец из маленького городка. Неторопливый, дружелюбный и даже обаятельный, он скрывает внутри себя совсем другую личность - неумолимого душегуба, который убивает так же легко, как раскуривает сигару. И всю свою историю он словно сам себе и рассказывает, с интересом наблюдая, сумеют ли его коллеги найти истинного преступника. И будет ли, наконец, остановлен Лу на дороге Зла? Дороге, которую он не выбирал...




Сэмпл

Качество: HDRip-AVC
Продолжительность: 01:49:14

Формат: MKV
Видео кодек: H264
Аудио кодек: AC3
Видео: 1024x432 (2.35:1), 23.976 fps, 1522 kbps, 0.140 bit/pixel
Аудио: 48 kHz, AC3 Dolby Digital, 3/2 (L,C,R,l,r) + LFE ch, ~384.00 kbps avg

MediaInfo ▼
General
Complete name : J :The Killer Inside Me.mkv
Format : Matroska
File size : 1.45 GiB
Duration : 1h 49mn
Overall bit rate : 1 906 Kbps
Movie name : The Killer Inside Me
Encoded date : UTC 2010-11-16 12:02:14
Writing application : mkvmerge v3.0.0 (Hang up your Hang-Ups) built on Dec 12 2009 15:20:35
Writing library : libebml v0.7.9 + libmatroska v0.8.1
Video
ID : 1
Format : AVC
Format/Info : Advanced Video Codec
Format profile : [email protected]
Format settings, CABAC : Yes
Format settings, ReFrames : 9 frames
Muxing mode : Container [email protected]
Codec ID : V_MPEG4/ISO/AVC
Duration : 1h 49mn
Bit rate : 1 484 Kbps
Nominal bit rate : 1 522 Kbps
Width : 1 024 pixels
Height : 432 pixels
Display aspect ratio : 2.35:1
Frame rate : 23.976 fps
Resolution : 24 bits
Colorimetry : 4:2:0
Scan type : Progressive
Bits/(Pixel*Frame) : 0.140
Stream size : 1.13 GiB (78%)
Title : The Killer Inside Me
Writing library : x264 core 104 r1713 c276662
Encoding settings : cabac=1 / ref=9 / deblock=1:-2:-1 / analyse=0x3:0x133 / me=umh / subme=9 / psy=1 / psy_rd=1.00:0.10 / mixed_ref=1 / me_range=32 / chroma_me=1 / trellis=2 / 8x8dct=1 / cqm=0 / deadzone=21,11 / fast_pskip=0 / chroma_qp_offset=-3 / threads=3 / sliced_threads=0 / nr=0 / decimate=1 / interlaced=0 / constrained_intra=0 / bframes=10 / b_pyramid=2 / b_adapt=2 / b_bias=0 / direct=3 / weightb=1 / open_gop=0 / weightp=2 / keyint=250 / keyint_min=23 / scenecut=40 / intra_refresh=0 / rc_lookahead=30 / rc=2pass / mbtree=1 / bitrate=1522 / ratetol=1.0 / qcomp=0.60 / qpmin=10 / qpmax=51 / qpstep=4 / cplxblur=20.0 / qblur=0.5 / ip_ratio=1.40 / aq=1:1.10
Language : English
Audio
ID : 2
Format : AC-3
Format/Info : Audio Coding 3
Codec ID : A_AC3
Duration : 1h 49mn
Bit rate mode : Constant
Bit rate : 384 Kbps
Channel(s) : 6 channels
Channel positions : Front: L C R, Surround: L R, LFE
Sampling rate : 48.0 KHz
Stream size : 300 MiB (20%)
Title : Дубляж

Дата премьеры (мир): 24 января 2010
Дата премьеры (РФ): 16 сентября 2010, «Top Film Distribution»


633bc262739d5b596a292ece571f40d5de26cf20Убийца внутри меня / The Killer Inside Me (Майкл Уинтерботтом / Michael Winterbottom, Триллер, драма, криминал 2010) [HDRip-AVC , Профессиональный (дублированный)] Убийца внутри меня / The Killer Inside Me (Майкл Уинтерботтом / Michael Winterbottom, Триллер, драма, криминал 2010) [HDRip-AVC , Профессиональный (дублированный)] " />

Аплоадер: Админ, дата: 20-11-2010, 01:28, торрент скачан: 359 раз

Понравилась раздача? Посмотрите эти:
  • Властелин любви / The Look of Love (Майкл Уинтерботтом, драма, комедия, био ...
  • Соучастник / Collateral (Майкл Манн, Триллер, драма, криминал, 2004) [BDRip ...
  • Убийца внутри меня / The Killer Inside Me (Майкл Уинтерботтом / Michael Win ...
  • Аноним / Anonymous (Роланд Эммерих, триллер, драма, 2011) [BDRip-AVC, Профе ...
  • Профессионал / Killer Elite (Гэри МакКендри , боевик, триллер, криминал, 20 ...
  • Основной инстинкт 2: Жажда риска / Basic Instinct 2 (Майкл Кейтон-Джонс / M ...
  • Город воров / The Town [Театральная версия / Theatrical Cut] (Бен Аффлек / ...
  • Команда «А» / The A-Team (Джо Карнахан, боевик, триллер, комедия, приключен ...
  • Джона Хекс / Jonah Hex (Джимми Хейуорд, боевик, триллер, драма, вестерн, 20 ...
  • Одержимая / The Devil Inside (Уильям Брент Белл, ужасы, триллер, 2012) [HDR ...
  • Повторяющие / Repeaters (Карл Бессай, фантастика, боевик, триллер, драма, к ...
  • Город воров [Театральная версия] / The Town [Theatrical cut] (Бен Аффлек, т ...
  • Оборотень: Зверь среди нас / Werewolf: The Beast Among Us (Луи Морно, ужасы ...
  • Убийца внутри меня / The Killer Inside Me (Майкл Уинтерботтом, триллер, дра ...
  • Профессионал / Killer Elite (Гэри МакКендри, Боевик, Триллер, Криминал, 201 ...
  • Убийца внутри меня / The Killer Inside Me (Майкл Уинтерботтом / Michael Win ...
  • Убийца внутри меня / The Killer Inside Me (Майкл Уинтерботтом / Michael Win ...
  • Убийца внутри меня / The Killer Inside Me (Майкл Уинтерботтом / Michael Win ...
  • Профессионал / Killer Elite (Гэри МакКендри, боевик, триллер, криминал, 201 ...
  • Убийца внутри меня / The Killer Inside Me (Майкл Уинтерботтом, триллер, дра ...
  • Информация
    Посетители, находящиеся в группе Гости, не могут оставлять комментарии к данной публикации.