вход на сайт

Имя пользователя :
Пароль :

Восстановление пароля Регистрация
В доме / Dans la maison (Франсуа Озон, Триллер, детектив, 2012) [HDRip, Профессиональный (полное дублирование)]
Рейтинг:
(голосов: 1)



[img]{THEME}/images/logopost.png[/img]



• В доме / Dans la maison •
«Думаешь, за тобой не интересно подсматривать?»

Год выпуска: 2012
Страна: Франция
Производство: Mandarin Films , Mars Distribution , France 2 Cinema
Жанр: Триллер, детектив

Режиссёр: Франсуа Озон
В ролях: Фабрис Лукини, Эрнст Умоер, Кристин Скотт Томас, Эмманюэль Сенье, Дени Меноше, Бастьен Угетто, Жан-Франсуа Балмер, Иоланда Моро, Катрин Давенье, Винсент Шмитт, Жак Боск, Стефани Кэмпион

Перевод: Профессиональный (полное дублирование)
Субтитры: Нет

Описание: Разочаровавшись в своих учениках, учитель благоволит лишь мальчику, сидящему на последней парте и сильно выделяющемуся на фоне остальных. Этот ребенок имеет склонность к подглядыванию и однажды решает написать рассказ о семье своего одноклассника, за которой имеет возможность систематически наблюдать.Дата премьеры (мир): 10 сентября 2012
Дата премьеры (РФ): 8 ноября 2012, «Парадиз»

Качество: HDRip |Сэмпл
Продолжительность: 01:40:47


Формат: AVI
Видео кодек: XviD
Аудио кодек: AC3
Видео: 720x384 (1.85:1), 24.000 fps, XviD build 50 ~1594 kbps avg, 0.240 bit/pixel
Аудио: 48 kHz, AC3 Dolby Digital, 3/2 (L,C,R,l,r) + LFE ch, ~384.00 kbps avg


MediaInfo ▼TextGeneral
Format : AVI
Format/Info : Audio Video Interleave
File size : 1.46 GiB
Duration : 1h 45mn
Overall bit rate : 1 987 Kbps
Writing application : VirtualDubMod 1.5.10.2 (build 2540/release)
Writing library : VirtualDubMod build 2540/release

Video
ID : 0
Format : MPEG-4 Visual
Format profile : Advanced [email protected]
Format settings, BVOP : No
Format settings, QPel : No
Format settings, GMC : No warppoints
Format settings, Matrix : Custom
Codec ID : XVID
Codec ID/Hint : XviD
Duration : 1h 45mn
Bit rate : 1 594 Kbps
Width : 720 pixels
Height : 384 pixels
Display aspect ratio : 1.85:1
Frame rate : 24.000 fps
Color space : YUV
Chroma subsampling : 4:2:0
Bit depth : 8 bits
Scan type : Progressive
Compression mode : Lossy
Bits/(Pixel*Frame) : 0.240
Stream size : 1.17 GiB (80%)
Writing library : XviD 1.2.1 (UTC 2008-12-04)

Audio
ID : 1
Format : AC-3
Format/Info : Audio Coding 3
Mode extension : CM (complete main)
Format settings, Endianness : Big
Codec ID : 2000
Duration : 1h 45mn
Bit rate mode : Constant
Bit rate : 384 Kbps
Channel(s) : 6 channels
Channel positions : Front: L C R, Side: L R, LFE
Sampling rate : 48.0 KHz
Bit depth : 16 bits
Compression mode : Lossy
Stream size : 289 MiB (19%)
Alignment : Split accross interleaves
Interleave, duration : 42 ms (1.00 video frame)
Interleave, preload duration : 500 ms


Релиз Группы "Virtus"

Стол заказов / Вступление в РГ / Благодарности, критика и другое


0f6217367198e22571649ab1e0f3297135749929В доме / Dans la maison (Франсуа Озон, Триллер, детектив, 2012) [HDRip, Профессиональный (полное дублирование)] В доме / Dans la maison (Франсуа Озон, Триллер, детектив, 2012) [HDRip, Профессиональный (полное дублирование)] " />

Аплоадер: Админ, дата: 23-02-2013, 02:35, торрент скачан: 359 раз

Понравилась раздача? Посмотрите эти:
  • Верное дельце / Une pure affaire (Александр Коффре, Боевик, Комедия, Кримин ...
  • В доме / Dans la maison (Франсуа Озон, Триллер, Мелодрама, Драма, 2012) [HD ...
  • Звук моего голоса / Sound of My Voice (Зал Батманглидж, триллер, драма, 201 ...
  • Слепой поворот / Blind Turn (Роберт Орр, Триллер, драма, детектив, 2012) [W ...
  • В доме / Dans la maison (Франсуа Озон, Триллер, мелодрама, драма, 2012) [BD ...
  • Любовь на кончиках пальцев / Populaire (Режис Ройнсар, Мелодрама, комедия, ...
  • Безопасность не гарантируется / Safety Not Guaranteed (Колин Треворроу, фан ...
  • В хлам / Smashed (Джеймс Понсольдт, Драма, комедия, 2012) [HDRip, Профессио ...
  • Суперстар / Superstar (Ксавье Джианноли, Драма, комедия, 2012) [HDRip, Проф ...
  • Покорители Волн / Chasing Mavericks (Майкл Эптед, Кёртис Хэнсон, Драма, спо ...
  • Экипаж / Flight (Роберт Земекис, Драма, 2012) [BDRip, Профессиональный (пол ...
  • В доме / Dans la maison (Франсуа Озон, триллер, детектив, 2012) [DVDRip, Ду ...
  • Папа-досвидос / Thats My Boy (Шон Андерс, Комедия, 2012) [HDRip, Профессион ...
  • Захват / Carjacked (Джон Бонито, триллер, 2011)[BDRip, Профессиональный (мн ...
  • Коллекционер 2 / The Collection (Маркус Данстэн, ужасы, боевик, триллер , 2 ...
  • Жизнь за гранью / After.Life (Агнешка Войтович-Восло, триллер, драма, детек ...
  • Жизнь за гранью / After.Life (Агнешка Войтович-Восло, триллер, драма, детек ...
  • Супершторм в Сиэтле / Seattle Superstorm (Джейсон Бурк, фантастика, боевик ...
  • Мемуары гейши / Memoirs of a Geisha (Роб Маршалл, драма, мелодрама, 2005) [ ...
  • За гранью / Beyond (Йозеф Руснак, триллер, 2012) [HDRip, Профессиональный ...
  • Информация
    Посетители, находящиеся в группе Гости, не могут оставлять комментарии к данной публикации.