вход на сайт

Имя пользователя :
Пароль :

Восстановление пароля Регистрация
Призрак (Никита Орлов, боевик, триллер, 1991) [TVRip, Не требуется]
Рейтинг:
(голосов: 1)



[img]{THEME}/images/logopost.png[/img]



Призрак

Год выпуска: 1991
Страна: Россия
Производство: Мосфильм
Жанр: боевик, триллер

Режиссёр: Никита Орлов
В ролях: Владимир Толоконников, Никита Высоцкий, Валерий Кравченко, Надежда Бутырцева, Геннадий Чулков, Андрей Крюков, Юрий Воробьев, Юрий Назаров, Ростислав Янковский, Николай Ерофеев

Перевод: Не требуется
Субтитры: Отсутствуют

Описание:
Неожиданная гибель брата, инспектора рыбнадзора, изменяет жизнь спивающегося бывшего спортсмена. Заподозрив местных браконьеров, он решает мстить…


Дополнительно:
MediaInfo ▼Text
Общее
Полное имя :D:ПризракPrizrak.avi
Формат :AVI
Размер :1.46 GiB
Продолжительность :01:27:51.960
Общий поток :2 382 Kbps
Программа кодирования :VirtualDubMod 1.5.10.3 | www.virtualdub-fr.org || (build 2550/release)
Библиотека кодирования :VirtualDubMod build 2550/release

Видео
Идентификатор :0
Формат :MPEG-4 Visual
Профиль формата :Advanced [email protected]
Параметр BVOP формата :2
Параметр Qpel формата :No
Параметр GMC формата :0
Параметр Matrix формата :Custom
Идентификатор кодека :XVID
Продолжительность :1h 27mn 51s 960ms
Битрейт :2 180 Kbps
Ширина :688 pixels
Высота :512 pixels
Соотношение сторон :1.344
Частота кадров :25.000 fps
Глубина цвета :8 bits
Подвыборка цветности :4:2:0
Цветовое пространство :YUV
Тип развертки :Progressive
Бит/(Пиксели*Кадры) :0.248
Размер потока :1.34 GiB (92%)
Библиотека кодирования :XviD0064

Аудио #1
Идентификатор :1
Формат :AC-3
Формат/Информация :Audio Coding 3
Идентификатор кодека :2000
Продолжительность :01:27:51.936
Вид битрейта :Constant
Битрейт :192 Kbps
Канал(ы) :2 channels
Расположение каналов :Front: L R
Частота :48.0 KHz
Битовая глубина :16 bits
Метод сжатия :Lossy
Размер потока :121 MiB (8%)



Тех. данные:
Качество:TVRip
Продолжительность: 
1c56395241ffed5084a24a59282a854081c212ffПризрак (Никита Орлов, боевик, триллер, 1991) [TVRip, Не требуется] Призрак (Никита Орлов, боевик, триллер, 1991) [TVRip, Не требуется] " />

Аплоадер: Админ, дата: 4-04-2013, 22:02, торрент скачан: 359 раз

Понравилась раздача? Посмотрите эти:
  • Жаворонок (Никита Курихин, Леонид Менакер, драма, военный, 1964) [DVDRip, Н ...
  • Божья тварь (Галина Данелия-Юркова, комедия, 1991) [DVDRip, Не требуется]
  • Неоконченная пьеса для механического пианино (Никита Михалков, драма, 1976) ...
  • Ко мне, Мухтар! (Семен Туманов, В. Тиунова, драма, 1964) [DVDRip, Не требуе ...
  • И вот пришел Бумбо... (Надежда Кошеверова, В. Апананский, Н. Окунцова, семе ...
  • Зеркало (Андрей Тарковский, драма, биография, 1974) [DVDRip, Не требуется]
  • Ой, вы, гуси... (Лидия Боброва, Драма, 1991) [DVDRip, Не требуется]
  • Не забудь... станция Луговая (Никита Курихин, Леонид Менакер, драма, мелодр ...
  • Эскадрон гусар летучих (Никита Хубов, Станислав Ростоцкий, военный, 1980) [ ...
  • Пустыня (Михаил Кац, драма, 1991) [TVRip, Не требуется]
  • Очи черные (Никита Михалков, драма, мелодрама, комедия, 1987) [DVDRip, Не т ...
  • Шторм на суше (Эдуард Бочаров, детский, 1975) [TVRip, Не требуется]
  • Игра на миллионы (Геннадий Байсак, комедия, криминал, приключения, 1991) [T ...
  • Царь Иван Грозный (2 части из 2) (Геннадий Васильев, Драма, история, 1991) ...
  • Цареубийца (Карен Шахназаров, Драма, история, 1991) [DVDRip, Не требуется]
  • Соловей (Надежда Кошеверова, мюзикл, семейный, 1979) [DVDRip, Не требуется] ...
  • Пропало лето (Ролан Быков, Никита Орлов, комедия, семейный, 1963) [DVDRip, ...
  • Сердце Бонивура (4 части из 4) (Марк Орлов, история, 1969) [TVRip, Не требу ...
  • Близнецы (Константин Юдин, комедия, 1945) [TVRip, Перевод, Не требуется]
  • Дикое поле (Николай Гусаров, боевик, 1991) [DVDRip, Не требуется]
  • Информация
    Посетители, находящиеся в группе Гости, не могут оставлять комментарии к данной публикации.