вход на сайт

Имя пользователя :
Пароль :

Восстановление пароля Регистрация
Газетчик / The Paperboy (Ли Дэниелс, триллер, 2012) [HDRip, Дублированный]
Рейтинг:
(голосов: 1)



[img]{THEME}/images/logopost.png[/img]



Газетчик / The Paperboy
------



Год выпуска: 2012
Страна: США
Производство: Lee Daniels Entertainment
Жанр: триллер

Режиссер: Ли Дэниелс
В ролях: Мэттью МакКонахи, Зак Эфрон, Николь Кидман, Джон Кьюсак, Мейси Грэй, Дэвид Ойелоуо, Скотт Гленн, Нед Беллами, Ниалла Гордон, Эдрик Браун

Перевод: Дублированный [НТВ+]
Субтитры: Отсутствуют

Описание: Конец 1960-х; успешный журналист Уорд расследует дерзкое убийство влиятельного шерифа-расиста в маленьком южном городке. Его цель — освободить несправедливо осуждённого и заодно сделать вместе с коллегой из Лондона сенсационный материал. Журналистам помогает юный разносчик газет Джек — родной брат Уорда, и невероятно сексапильная блондинка Шарлотта: она влюбилась по переписке в того самого заключенного из камеры смертников. Каждому из героев есть что скрывать и чего бояться — но раскалённый воздух Юга пробуждает самые тёмные и горячие желания…



Дата премьеры (мир): 24 мая 2012
Дата премьеры (РФ): 1 ноября 2012, «Наше Кино»

МедиаИнфо ▼Text

D:Gazet4ik.2012.D.HDRip.avi
General
Complete name : D:Gazet4ik.2012.D.HDRip.avi
Format : AVI
Format/Info : Audio Video Interleave
File size : 1.46 GiB
Duration : 1h 46mn
Overall bit rate : 1 958 Kbps
Writing application : VirtualDubMod 1.5.10.2 (build 2540/release)
Writing library : VirtualDubMod build 2540/release
Video #0
ID : 0
Format : MPEG-4 Visual
Format profile : Advanced [email protected]
Format settings, BVOP : Yes
Format settings, QPel : No
Format settings, GMC : No warppoints
Format settings, Matrix : Default (MPEG)
Codec ID : XVID
Codec ID/Hint : XviD
Duration : 1h 46mn
Bit rate : 1 756 Kbps
Width : 720 pixels
Height : 304 pixels
Display aspect ratio : 2.35:1
Frame rate : 23.976 fps
Color space : YUV
Chroma subsampling : 4:2:0
Bit depth : 8 bits
Scan type : Progressive
Compression mode : Lossy
Bits/(Pixel*Frame) : 0.335
Stream size : 1.31 GiB (90%)
Writing library : XviD 1.2.1 (UTC 2008-12-04)
Audio #1
ID : 1
Format : AC-3
Format/Info : Audio Coding 3
Mode extension : CM (complete main)
Codec ID : 2000
Duration : 1h 46mn
Bit rate mode : Constant
Bit rate : 192 Kbps
Channel(s) : 2 channels
Channel positions : Front: L R
Sampling rate : 48.0 KHz
Bit depth : 16 bits
Compression mode : Lossy
Stream size : 147 MiB (10%)
Alignment : Split accross interleaves
Interleave, duration : 42 ms (1.00 video frame)
Interleave, preload duration : 500 ms



Качество: HDRip
Продолжительность: 01:46:45

Формат: AVI
Видео кодек: XviD
Аудио кодек: AC3
Видео: 720x304 (2.37:1), 23.976 fps, XviD build 50 ~1756 kbps avg, 0.33 bit/pixel
Аудио: 48 kHz, AC3 Dolby Digital, 2 ch, ~192.00 kbps avg
Релиз группы:





b13e04e79f15686a055fdd501765e6728f323658Газетчик / The Paperboy (Ли Дэниелс, триллер, 2012) [HDRip, Дублированный] Газетчик / The Paperboy (Ли Дэниелс, триллер, 2012) [HDRip, Дублированный] " />

Аплоадер: Админ, дата: 2-06-2013, 15:46, торрент скачан: 359 раз

Понравилась раздача? Посмотрите эти:
  • Верное дельце / Une pure affaire (Александр Коффре, Боевик, Комедия, Кримин ...
  • Мои герои / Mes heros (Эрик Беснард, комедия, 2012) [HDRip, Профессиональны ...
  • Газетчик / The Paperboy (Ли Дэниелс, триллер, 2012) [HDRip-AVC, Дублированн ...
  • Газетчик / The Paperboy (Ли Дэниелс, Триллер, 2012) [BDRip, Дубляж, Авторск ...
  • Газетчик / The Paperboy (Ли Дэниелс, Триллер, 2012) [BDRip-AVC, Дубляж]
  • Мужество / Wymyk (Грег Зглински, драма, 2011) [DVDRip, Любительский (одного ...
  • Ночь тамплиера / Night of the Templar (Пол Сэмпсон, Ужасы, фантастика, боев ...
  • Звук моего голоса / Sound of My Voice (Зал Батманглидж, триллер, драма, 201 ...
  • Слепой поворот / Blind Turn (Роберт Орр, Триллер, драма, детектив, 2012) [W ...
  • 23:59 / 23:59 (Гилберт Чан, Ужасы, 2011) [HDRip, Любительский (одноголосый ...
  • Газетчик / The Paperboy (Ли Дэниелс, триллер, 2012) [HDRip, Дублированный]
  • Газетчик / The Paperboy (Ли Дэниелс, триллер, 2012) [BDRip 720p, Дублирован ...
  • Газетчик / The Paperboy (Ли Дэниелс, Мэттью МакКонахи, триллер, 2012) [BDRi ...
  • Захват / Carjacked (Джон Бонито, триллер, 2011)[BDRip, Профессиональный (мн ...
  • Коллекционер 2 / The Collection (Маркус Данстэн, ужасы, боевик, триллер , 2 ...
  • Tank Feat. T.I. & Kris Stephens / Compliments [2012, RnB,Hip-Hop, HDRip]
  • Неделя в NBA с В.Гомельским / НТВ+ [28.06.2011, SD, XviD, RU, SAT]
  • Супершторм в Сиэтле / Seattle Superstorm (Джейсон Бурк, фантастика, боевик ...
  • Олимпиада 2012 / Женщины, Мужчины / Плавание / Квалификация / НТВ+ [30.07.2 ...
  • Москва 2017 / Branded (Джейми Брэдшоу, Александр Дулерайн, фантастика, трил ...
  • Информация
    Посетители, находящиеся в группе Гости, не могут оставлять комментарии к данной публикации.