вход на сайт

Имя пользователя :
Пароль :

Восстановление пароля Регистрация
Соучастник / Collateral (Майкл Манн, Триллер, драма, криминал, 2004) [BDRip-AVC, Профессиональный (полное дублирование), Оригинал (английский), Sub]
Рейтинг:
(голосов: 1)



[img]{THEME}/images/logopost.png[/img]



Соучастник / Collateral
«It started like any other night»

Год выпуска: 2004
Страна: США
Производство: DreamWorks SKG, Edge City, Paramount Pictures
Жанр: Триллер, драма, криминал

Режиссёр: Майкл Манн
В ролях: Том Круз, Джейми Фокс, Джада Пинкетт Смит, Марк Руффало, Брюс МакГилл, Ирма П. Холл, Бэрри Шебака Хенли, Питер Берг, Хавьер Бардем, Эмилио Ривера

Перевод: Профессиональный (полное дублирование), Оригинал (английский)
Субтитры: английские, русские (Киномания, SDH, Tycoon, Комментарии)

Описание: Водитель такси оказывается в положении заложника, когда к нему в машину садится наемный убийца, заставляющий его наматывать километры по ночному Лос-Анджелесу от одной жертвы к другой. Нужно спасать — себя и последнюю намеченную убийцей цель…



Качество: BDRip-AVC
Продолжительность: 01:59:56 час.

Формат: MKV
Видео кодек: AVC
Аудио кодек: AC3
Видео: 1032x430 (2,40:1), 23,976 fps, AVC ~1775 Кbps avg, 0.167 bit/pixel
Аудио #1: 48 kHz, AC3 Dolby Digital, 3/2 (L,C,R,l,r) + LFE ch, 448.00 kbps avg - (RUS)
Аудио #2: 48 kHz, AC3 Dolby Digital, 3/2 (L,C,R,l,r) + LFE ch, 384.00 kbps avg - (ENG)

Премьера (мир): 5 августа 2004
Премьера (РФ): 16 сентября 2004, «UIP»

MediaInfo ▼Format : Matroska
Format version : Version 4 / Version 2
File size : 2.19 GiB
Duration : 1h 59mn
Overall bit rate : 2 608 Kbps
Movie name : HELLYWOOD
Encoded date : UTC 2013-08-05 17:10:10
Writing application : mkvmerge v5.9.0 (On The Loose) built on Dec 15 2012 16:39:58
Writing library : libebml v1.3.0 + libmatroska v1.4.0

Video
ID : 1
Format : AVC
Format/Info : Advanced Video Codec
Format profile : [email protected]
Format settings, CABAC : Yes
Format settings, ReFrames : 10 frames
Codec ID : V_MPEG4/ISO/AVC
Duration : 1h 59mn
Bit rate : 1 775 Kbps
Width : 1 032 pixels
Height : 430 pixels
Display aspect ratio : 2.40:1
Frame rate mode : Constant
Frame rate : 23.976 fps
Color space : YUV
Chroma subsampling : 4:2:0
Bit depth : 8 bits
Scan type : Progressive
Bits/(Pixel*Frame) : 0.167
Stream size : 1.44 GiB (66%)
Title : Collateral
Writing library : x264 core 130 r2273 b3065e6
Encoding settings : cabac=1 / ref=10 / deblock=1:-3:-3 / analyse=0x3:0x133 / me=umh / subme=11 / psy=1 / psy_rd=0.98:0.01 / mixed_ref=1 / me_range=48 / chroma_me=1 / trellis=2 / 8x8dct=1 / cqm=0 / deadzone=21,11 / fast_pskip=0 / chroma_qp_offset=-3 / threads=9 / lookahead_threads=2 / sliced_threads=0 / nr=0 / decimate=1 / interlaced=0 / bluray_compat=0 / constrained_intra=0 / bframes=11 / b_pyramid=2 / b_adapt=2 / b_bias=0 / direct=3 / weightb=1 / open_gop=0 / weightp=2 / keyint=240 / keyint_min=23 / scenecut=40 / intra_refresh=0 / rc_lookahead=150 / rc=2pass / mbtree=1 / bitrate=1775 / ratetol=1.0 / qcomp=0.70 / qpmin=0 / qpmax=69 / qpstep=4 / cplxblur=20.0 / qblur=0.5 / vbv_maxrate=20000 / vbv_bufsize=20000 / nal_hrd=none / ip_ratio=1.35 / aq=1:0.90
Language : English
Default : Yes
Forced : No

Audio #1
ID : 2
Format : AC-3
Format/Info : Audio Coding 3
Mode extension : CM (complete main)
Format settings, Endianness : Big
Codec ID : A_AC3
Duration : 1h 59mn
Bit rate mode : Constant
Bit rate : 448 Kbps
Channel(s) : 6 channels
Channel positions : Front: L C R, Side: L R, LFE
Sampling rate : 48.0 KHz
Bit depth : 16 bits
Compression mode : Lossy
Stream size : 384 MiB (17%)
Title : Dub | DD 5.1 @ 448 kbps
Language : Russian
Default : Yes
Forced : Yes

Audio #2
ID : 3
Format : AC-3
Format/Info : Audio Coding 3
Mode extension : CM (complete main)
Format settings, Endianness : Big
Codec ID : A_AC3
Duration : 1h 59mn
Bit rate mode : Constant
Bit rate : 384 Kbps
Channel(s) : 6 channels
Channel positions : Front: L C R, Side: L R, LFE
Sampling rate : 48.0 KHz
Bit depth : 16 bits
Compression mode : Lossy
Stream size : 329 MiB (15%)
Title : Original | DD 5.1 @ 384 kbps
Language : English
Default : No
Forced : No

Text #1
ID : 4
Format : UTF-8
d10e1bca23c455f37b382d4dee6d4e72d2f245aaСоучастник / Collateral (Майкл Манн, Триллер, драма, криминал, 2004) [BDRip-AVC, Профессиональный (полное дублирование), Оригинал (английский), Sub] Соучастник / Collateral (Майкл Манн, Триллер, драма, криминал, 2004) [BDRip-AVC, Профессиональный (полное дублирование), Оригинал (английский), Sub] " />

Аплоадер: Админ, дата: 7-08-2013, 14:30, торрент скачан: 359 раз

Понравилась раздача? Посмотрите эти:
  • Пастырь / Priest (Скотт Чарльз Стюарт, ужасы, фантастика, боевик, триллер, ...
  • Семь психопатов / Seven Psychopaths (Мартин МакДона, Триллер, комедия, крим ...
  • Форсаж 6 / Furious 6 [Extended Cut] (Джастин Лин, Боевик, триллер, драма, к ...
  • Иллюзия обмана / Now You See Me [Theatrical Cut] (Луи Летерье / Louis Leter ...
  • Четвертый вид / The Fourth Kind (Олатунде Осунсанми, ужасы, фантастика, 200 ...
  • Хроника / Chronicle (Джошуа Транк, фантастика, боевик, триллер, драма, 2012 ...
  • Палата / The Ward (Джон Карпентер, Ужасы, триллер, 2010) [BDRip-AVC, Профес ...
  • Соучастник / Collateral (Майкл Манн, Триллер, драма, криминал, 2004) [BDRi ...
  • Жизнь Пи / Life Of Pi (Энг Ли, Драма, приключения, 2012) [BDRip 1080p, Проф ...
  • Сайлент Хилл 2 / Silent Hill: Revelation 3D (Майкл Дж. Бассетт, ужасы, трил ...
  • Покорители Волн / Chasing Mavericks (Майкл Эптед, Кёртис Хэнсон, Драма, спо ...
  • Экипаж / Flight (Роберт Земекис, Драма, 2012) [BDRip-AVC, Профессиональный ...
  • Аноним / Anonymous (Роланд Эммерих, триллер, драма, 2011) [BDRip-AVC, Профе ...
  • Голодный кролик атакует / Seeking Justice (Роджер Дональдсон / Roger Donald ...
  • Патруль / End of Watch (Дэвид Эйр, Триллер, драма, криминал, 2012) [BDRip-A ...
  • Коллекционер 2 / The Collection (Маркус Данстэн, ужасы, боевик, триллер , 2 ...
  • Соучастник / Collateral (Стюарт Битти, триллер, драма, криминал, 2004) [BD- ...
  • Патруль / End of Watch (Дэвид Эйр, Триллер, драма, криминал, 2012) [BDRip 7 ...
  • Соучастник / Collateral (Майкл Манн / Michael Mann, триллер, драма, кримин ...
  • Соучастник / Collateral (Стюарт Битти, Триллер, драма, криминал, 2004) [HDR ...
  • Информация
    Посетители, находящиеся в группе Гости, не могут оставлять комментарии к данной публикации.