вход на сайт

Имя пользователя :
Пароль :

Восстановление пароля Регистрация
Транс / Trance (Дэнни Бойл, Триллер, драма, криминал, детектив, 2013) [BDRip, Дубляж]
Рейтинг:
(голосов: 1)



[img]{THEME}/images/logopost.png[/img]



Транс / Trance
«В подсознании. Вне закона»

Год выпуска: 2013
Страна: Великобритания, Франция
Производство: Cloud Eight Films, Decibel Films, Film4, Pathé
Жанр: Триллер, драма, криминал, детектив

Режиссёр: Дэнни Бойл
В ролях: Джеймс МакЭвой, Венсан Кассель, Розарио Доусон, Дэнни Сапани, Мэттью Кросс, Вахаб Ахмед Шейх, Марк Полтимор, Таппенс Мидлтон, Саймон Кунц, Майкл Шэйффер

Перевод: Дубляж
Субтитры: Отсутствуют

Описание: Аукционер Саймон не в силах противостоять искушению — вступает в сговор с бандой грабителей и организует похищение уникального лота стоимостью в миллионы долларов. Однако налет оканчивается не совсем так, как он предполагал вначале. Аукционера оглушают ударом тупого предмета по голове, в результате которого он теряет какие бы то ни было воспоминания о том, что произошло. Разумеется, он также забывает, куда спрятал ценную картину. Пытками добиться ответа от ничего не понимающего Саймона не удается. Тогда главарь банды решает нанять психотерапевта, чтобы она смогла выудить ценную информацию из поврежденного мозга заложника. По мере того, как девушка пробивается сквозь нейронную защиту, ставки растут как на дрожжах. Границы между страстью и жестокостью, реальностью и вымыслом тускнеют и вовсе готовы испариться. В конечном итоге становится не ясно — кто же у кого в заложниках?



Качество: BDRip | Сравнение скриншотов с этой раздачей | Сэмпл |
Продолжительность: 01:41:19 час.


Формат: AVI
Видео кодек: XviD
Аудио кодек: AC3
Видео: 720x304 (2.35:1), 23.976 fps, XviD MPEG-4 ~1 598 kbps avg, 0.305 bit/pixel
Аудио: 48 kHz, AC3, 3/2 (L,C,R,l,r) + LFE ch, ~448.00 kbps avg - (Дубляж)

Дата премьеры (мир): 27 марта 2013
Дата премьеры (РФ): 4 апреля 2013, «Двадцатый Век Фокс СНГ»

MediaInfo ▼
General
Complete name : I:Trans.2013.RUS.BDRip.XviD.AC3.-HQ-ViDEO.avi
Format : AVI
Format/Info : Audio Video Interleave
File size : 1.45 GiB
Duration : 1h 41mn
Overall bit rate : 2 056 Kbps
Movie name : Trance (2013)
Director : Vaippp
Genre : Drama/Thriller
Writing application : VirtualDubModRus 1.5.10.2 (build 2542/release)
Writing library : VirtualDubMod build 2542/release
Original source form/Name : Movie
Copyright : HQ-ViDEO
Comment : BDRip

Video
ID : 0
Format : MPEG-4 Visual
Format profile : Advanced [email protected]
Format settings, BVOP : 1
Format settings, QPel : No
Format settings, GMC : No warppoints
Format settings, Matrix : Custom
Codec ID : XVID
Codec ID/Hint : XviD
Duration : 1h 41mn
Bit rate : 1 598 Kbps
Width : 720 pixels
Height : 304 pixels
Display aspect ratio : 2.35:1
Frame rate : 23.976 fps
Color space : YUV
Chroma subsampling : 4:2:0
Bit depth : 8 bits
Scan type : Progressive
Compression mode : Lossy
Bits/(Pixel*Frame) : 0.305
Stream size : 1.13 GiB (78%)
Writing library : XviD 73

Audio
ID : 1
Format : AC-3
Format/Info : Audio Coding 3
Mode extension : CM (complete main)
Format settings, Endianness : Big
Codec ID : 2000
Duration : 1h 41mn
Bit rate mode : Constant
Bit rate : 448 Kbps
Channel(s) : 6 channels
Channel positions : Front: L C R, Side: L R, LFE
Sampling rate : 48.0 KHz
Bit depth : 16 bits
Compression mode : Lossy
Stream size : 325 MiB (22%)
Alignment : Split accross interleaves
Interleave, duration : 42 ms (1.00 video frame)
Interleave, preload duration : 500 ms







68eba97504da6e3a63a6c993a14ab0544fcf488fТранс / Trance (Дэнни Бойл, Триллер, драма, криминал, детектив, 2013) [BDRip, Дубляж] Транс / Trance (Дэнни Бойл, Триллер, драма, криминал, детектив, 2013) [BDRip, Дубляж] " />

Аплоадер: Админ, дата: 6-08-2013, 23:03, торрент скачан: 359 раз

Понравилась раздача? Посмотрите эти:
  • Война миров Z [Театральная версия] / World War Z [Theatrical Cut] (Марк Фор ...
  • Великий Гэтсби / The Great Gatsby (Баз Лурман, Драма, мелодрама, 2013) [BDR ...
  • Транс / Trance (Дэнни Бойл, триллер, драма, криминал, детектив, 2013) [480x ...
  • Возвращение героя / The Last Stand (Ким Чжи-ун, Боевик, триллер, криминал, ...
  • Безумный Макс 3: Под куполом грома / Mad Max Beyond Thunderdome (Джордж Мил ...
  • Неудержимый / Bullet to the Head (Уолтер Хилл, Боевик, триллер, криминал, 2 ...
  • Поймай толстуху, если сможешь [Театральная версия] / Identity Thief [Theatr ...
  • Очень страшное кино 5 / Scary MoVie (Малкольм Д. Ли, Комедия, 2013) [BDRip, ...
  • Транс / Trance (Дэнни Бойл, триллер, драма, криминал, детектив, 2013) [HDRi ...
  • Транс / Trance (Дэнни Бойл, триллер, драма, криминал, детектив, 2013) [BDRi ...
  • Транс / Trance (Дэнни Бойл, триллер, драма, криминал, детектив, 2013) [BDRi ...
  • Транс / Trance (Дэнни Бойл, триллер, драма, криминал, детектив, 2013) [BDRi ...
  • Транс / Trance (Дэнни Бойл, Триллер, драма, криминал, детектив, 2013) [BDRi ...
  • Транс / Trance (Дэнни Бойл, Триллер, драма, криминал, детектив, 2013) [Blu- ...
  • Транс / Trance (Дэнни Бойл, Триллер, драма, криминал, детектив, 2013) [BDRi ...
  • Транс / Trance (Дэнни Бойл, Триллер, драма, криминал, детектив, 2013) [BDRi ...
  • Транс / Trance (Дэнни Бойл, триллер, драма, криминал, детектив, 2013) [BD R ...
  • Транс / Trance (Дэнни Бойл, триллер, драма, криминал, детектив, 2013) [HDR ...
  • Транс / Trance (Дэнни Бойл, триллер, драма, криминал, детектив, 2013) [HDRi ...
  • Транс / Trance (Дэнни Бойл, Триллер, драма, криминал, детектив, 2013) [BDRi ...
  • Транс / Trance (Дэнни Бойл, Триллер, драма, криминал, детектив, 2013) [BDRi ...
  • Крепкий орешек: Хороший день, чтобы умереть [Расширенная версия] / A Good D ...
  • Охотники на гангстеров / Gangster Squad (Рубен Флейшер, боевик, триллер, др ...
  • [Трейлер] Транс / Trance (Дэнни Бойл, триллер, драма, криминал) [HDRip, Про ...
  • 127 Часов / 127 Hours (Дэнни Бойл, триллер, драма, приключения, биография, ...
  • Информация
    Посетители, находящиеся в группе Гости, не могут оставлять комментарии к данной публикации.