вход на сайт

Имя пользователя :
Пароль :

Восстановление пароля Регистрация
Подмена / Switch (Фредерик Шёндёрфер, триллер, криминал, 2011) [HDRip, Профессиональный (многоголосный)]
Рейтинг:
(голосов: 1)



[img]{THEME}/images/logopost.png[/img]



Подмена / Switch
------



Год выпуска: 2011
Страна: Франция
Производство: Canal+ [fr], Banque Populaire Images 11
Жанр: триллер, криминал

Режиссер: Фредерик Шёндёрфер
В ролях: Карин Ванасс, Эрик Кантона, Мехди Неббу, Орельен Рекуан, Карина Теста, Бруно Тодескини, Максим Рой, Нисеема Софи, Фочер Стефан, Гуэрин-Тилли

Перевод: Профессиональный (многоголосный) [НТВ+]
Субтитры: Отсутствуют

Описание: Не имея никаких планов, 25-летняя дизайнер моды из Канады Софи с тоской смотрит на приближающийся летний отпуск. Попавшийся ей на глаза сайт в интернете предлагает обмен домами, и взамен своего дома она на месяц получает апартаменты с видом на Эйфелеву башню в Париже.

Первый день на новом месте был полной идиллией, но на утро она пробуждается от вторжения полиции. В соседней комнате находят обезглавленное тело, а сама Софи оказывается не способной доказать полиции, что она не владелица квартиры Бенедикт Серто. Ловушка перед ней быстро захлопывается.



Премьера (мир): 6 июля 2011, ...

МедиаИнфо ▼Text

D:Podmena.2011.P.HDRip.avi
General
Complete name : D:Podmena.2011.P.HDRip.avi
Format : AVI
Format/Info : Audio Video Interleave
File size : 1.37 GiB
Duration : 1h 43mn
Overall bit rate : 1 888 Kbps
Writing application : VirtualDubMod 1.5.10.2 (build 2540/release)
Writing library : VirtualDubMod build 2540/release
Video #0
ID : 0
Format : MPEG-4 Visual
Format profile : Advanced [email protected]
Format settings, BVOP : Yes
Format settings, QPel : No
Format settings, GMC : No warppoints
Format settings, Matrix : Default (MPEG)
Codec ID : XVID
Codec ID/Hint : XviD
Duration : 1h 43mn
Bit rate : 1 687 Kbps
Width : 720 pixels
Height : 400 pixels
Display aspect ratio : 16:9
Frame rate : 23.976 fps
Color space : YUV
Chroma subsampling : 4:2:0
Bit depth : 8 bits
Scan type : Progressive
Compression mode : Lossy
Bits/(Pixel*Frame) : 0.244
Stream size : 1.22 GiB (89%)
Writing library : XviD 1.2.1 (UTC 2008-12-04)
Audio #1
ID : 1
Format : AC-3
Format/Info : Audio Coding 3
Mode extension : CM (complete main)
Codec ID : 2000
Duration : 1h 43mn
Bit rate mode : Constant
Bit rate : 192 Kbps
Channel(s) : 2 channels
Channel positions : Front: L R
Sampling rate : 48.0 KHz
Bit depth : 16 bits
Compression mode : Lossy
Stream size : 142 MiB (10%)
Alignment : Split accross interleaves
Interleave, duration : 42 ms (1.00 video frame)
Interleave, preload duration : 500 ms



Качество: HDRip
Продолжительность: 01:43:41

Формат: AVI
Видео кодек: XviD
Аудио кодек: AC3
Видео: 720x400 (1.80:1), 23.976 fps, XviD build 50 ~1686 kbps avg, 0.24 bit/pixel
Аудио: 48 kHz, AC3 Dolby Digital, 2/0 (L,R) ch, ~192.00 kbps avg





ef530e95d0dadae037e31f8f3de932770dfc6860Подмена / Switch (Фредерик Шёндёрфер, триллер, криминал, 2011) [HDRip, Профессиональный (многоголосный)] Подмена / Switch (Фредерик Шёндёрфер, триллер, криминал, 2011) [HDRip, Профессиональный (многоголосный)] " />

Аплоадер: Админ, дата: 12-07-2013, 14:54, торрент скачан: 359 раз

Понравилась раздача? Посмотрите эти:
  • Готовые на всё / Workers - Pronti a tutto (Лоренцо Виньоло, Комедия, 2012) ...
  • Погнали! / Getaway (Кортни Соломон, Боевик, Криминал, 2013) [HDRip, Професс ...
  • Орудие смерти / A-i-deul... (Ли Гю Ман, Триллер, криминал, 2011) [DVDRip, П ...
  • Марафон / De Marathon (Дидрик Копал, комедия, спорт, 2012) [HDRip, Професси ...
  • Марафон / De Marathon (Дидрик Копал, комедия, спорт, 2012) [HDRip, Професси ...
  • Верное дельце / Une pure affaire (Александр Коффре, Боевик, Комедия, Кримин ...
  • Мои герои / Mes heros (Эрик Беснард, комедия, 2012) [HDRip, Профессиональны ...
  • Кодовое имя «Джеронимо» / Seal Team Six: The Raid on Osama Bin Laden (Джон ...
  • Мужество / Wymyk (Грег Зглински, драма, 2011) [DVDRip, Любительский (одного ...
  • Слабые проблески / Rushlights (Энтони Стац, Триллер, Мелодрама, Криминал, 2 ...
  • Подмена / Switch (Фредерик Шёндёрфер,триллер, криминал, 2011) BDRip-AVC , П ...
  • Подмена / Switch (Фредерик Шёндёрфер, триллер, криминал, 2011) [HDRip, Проф ...
  • Звук моего голоса / Sound of My Voice (Зал Батманглидж, триллер, драма, 201 ...
  • Слепой поворот / Blind Turn (Роберт Орр, Триллер, драма, детектив, 2012) [W ...
  • 23:59 / 23:59 (Гилберт Чан, Ужасы, 2011) [HDRip, Любительский (одноголосый ...
  • Плохая актриса / Bad Actress (Роберт Ли Кинг, комедия, 2011) [DVDRip, Профе ...
  • Джефф, живущий дома / Jeff, Who Lives at Home (Джей Дюпласс, Марк Дюпласс, ...
  • Захват / Carjacked (Джон Бонито, триллер, 2011)[BDRip, Профессиональный (мн ...
  • Tank Feat. T.I. & Kris Stephens / Compliments [2012, RnB,Hip-Hop, HDRip]
  • Подмена / Switch (Фредерик Шёндёрфер, Триллер, криминал, 2011) [HDRip, Проф ...
  • Подмена / Switch (Фредерик Шёндёрфер, Триллер, криминал, 2011) [HDRip, Проф ...
  • Супершторм в Сиэтле / Seattle Superstorm (Джейсон Бурк, фантастика, боевик ...
  • Девушки в опасности / Damsels in Distress (Уит Стиллман, драма, мелодрама, ...
  • Глаз шторма / The Eye of the Storm (Фред Скеписи, Драма, 2011) [HDRip, Проф ...
  • Искажение / Skew (Сейв Челенз, ужасы, триллер, 2011) [HDRip, Профессиональн ...
  • Информация
    Посетители, находящиеся в группе Гости, не могут оставлять комментарии к данной публикации.