вход на сайт

Имя пользователя :
Пароль :

Восстановление пароля Регистрация
Странный Томас / Odd Thomas (Стивен Соммерс, триллер, детектив, 2013) [DVDRip, Профессиональный (многоголосый закадровый) (Товарищество 110/17) ]
Рейтинг:
(голосов: 1)



[img]{THEME}/images/logopost.png[/img]



Странный Томас / Odd Thomas


Год выпуска: 2013
Страна: США
Производство: Fusion Films (II), Future Films
Жанр: триллер, детектив

Режиссёр: Стивен Соммерс
В ролях:Антон Ельчин, Эшли Соммерс, Леонор Варела, Мэттью Пейдж, Кэйси Мессер, Barney Lanning, Нико Торторелла, Уиллем Дефо, Кайл МакКивер, Carmen Corley
Перевод: Профессиональный (многоголосый закадровый) (Товарищество 110/17)
Озвучка:
Михаил Суслов
Константин Погодаев
Владимир Чистохин
Алексей Фокин
Анастасия Флигина
Светлана Чистохина
Субтитры: нет

Описание: Главный герой наделен даром (или проклятием) видеть мертвецов. Каждый их визит становится началом очередной охоты на убийцу — призраки ведут Томаса на помощь тем, кому еще рано расставаться с жизнью. О способности героя знают только самые близкие друзья и любимая девушка. С их помощью ему предстоит отвести большую беду от маленького городка в центре пустыни Мохаве.




Премьера (мир): 6 апреля 2013

Качество: DVDRip / Сэмпл
Продолжительность: 01:32:41

Формат: AVI
Видео кодек: XviD
Аудио кодек: AC3
Видео: 720x304 (2.35:1), 25 fps, XviD, ~1720 kbps avg, 0.288 bit/pixel
Аудио: 48 kHz, AC3, 6 ch, ~448.00 kbps avg
"MediaInfo" ▼General
Complete name: Odd_Thomas_(2013)_DVDRip.avi
Format : AVI
Format/Info : Audio Video Interleave
File size : 1.41 GiB
Duration : 1h 32mn
Overall bit rate : 2 178 Kbps
Writing application : VirtualDubModRus 1.5.10.2 (build 2542/release)
Writing library : VirtualDubMod build 2542/release

Video
ID : 0
Format : MPEG-4 Visual
Format profile : Advanced [email protected]
Format settings, BVOP : 2
Format settings, QPel : No
Format settings, GMC : No warppoints
Format settings, Matrix : Default (H.263)
Muxing mode : Packed bitstream
Codec ID : XVID
Codec ID/Hint : XviD
Duration : 1h 32mn
Bit rate : 1 720 Kbps
Width : 720 pixels
Height : 304 pixels
Display aspect ratio : 2.35:1
Frame rate : 25.000 fps
Color space : YUV
Chroma subsampling : 4:2:0
Bit depth : 8 bits
Scan type : Progressive
Compression mode : Lossy
Bits/(Pixel*Frame) : 0.314
Stream size : 1.11 GiB (79%)
Writing library : XviD 64

Audio
ID : 1
Format : AC-3
Format/Info : Audio Coding 3
Mode extension : CM (complete main)
Format settings, Endianness : Big
Codec ID : 2000
Duration : 1h 32mn
Bit rate mode : Constant
Bit rate : 448 Kbps
Channel(s) : 6 channels
Channel positions : Front: L C R, Side: L R, LFE
Sampling rate : 48.0 KHz
Bit depth : 16 bits
Compression mode : Lossy
Stream size : 297 MiB (21%)
Alignment : Split accross interleaves
Interleave, duration : 40 ms (1.00 video frame)
Interleave, preload duration : 500 ms

Стол заказов POWER | Отзывы | Вступление в POWER
МОИ РАЗДАЧИ


72cd385258b5ae1e5d18e6c2688884e41ff2d63dСтранный Томас / Odd Thomas (Стивен Соммерс, триллер, детектив, 2013) [DVDRip, Профессиональный (многоголосый закадровый) (Товарищество 110/17) ] Странный Томас / Odd Thomas (Стивен Соммерс, триллер, детектив, 2013) [DVDRip, Профессиональный (многоголосый закадровый) (Товарищество 110/17) ] " />

Аплоадер: Админ, дата: 11-07-2013, 05:41, торрент скачан: 359 раз

Понравилась раздача? Посмотрите эти:
  • Погнали! / Getaway (Кортни Соломон, Боевик, Криминал, 2013) [HDRip, Професс ...
  • Вирус / Flu (Ким Сон Су, Драма, 2013) [HDTVRip, Любительский (двухголосый з ...
  • Странный Томас / Odd Thomas (Стивен Соммерс, Триллер, детектив, фэнтези, бо ...
  • Орудие смерти / A-i-deul... (Ли Гю Ман, Триллер, криминал, 2011) [DVDRip, П ...
  • Верное дельце / Une pure affaire (Александр Коффре, Боевик, Комедия, Кримин ...
  • Странный Томас / Odd Thomas ( Стивен Соммерс, триллер, детектив, фэнтези, б ...
  • Странный Томас / Odd Thomas (Стивен Соммерс, триллер, детектив, 2013) [DVDR ...
  • Мужество / Wymyk (Грег Зглински, драма, 2011) [DVDRip, Любительский (одного ...
  • 42 / 42 (Брайан Хелгеленд, драма, биография, спорт, 2013) [BDRip, Профессио ...
  • Странный Томас / Odd Thomas (Стивен Соммерс, триллер, детектив, 2013) [DVDR ...
  • Звук моего голоса / Sound of My Voice (Зал Батманглидж, триллер, драма, 201 ...
  • Слепой поворот / Blind Turn (Роберт Орр, Триллер, драма, детектив, 2012) [W ...
  • 23:59 / 23:59 (Гилберт Чан, Ужасы, 2011) [HDRip, Любительский (одноголосый ...
  • Чемпионат Италии 2012-13 / 36-й тур / Рома — Кьево / НТВ+ [07.05.2013, SD, ...
  • В хлам / Smashed (Джеймс Понсольдт, Драма, комедия, 2012) [HDRip, Профессио ...
  • Плохая актриса / Bad Actress (Роберт Ли Кинг, комедия, 2011) [DVDRip, Профе ...
  • Супер циклон / Super Cyclone (Лиз Адамс / Liz Adams, боевик, 2012) [HDRip, ...
  • Захват / Carjacked (Джон Бонито, триллер, 2011)[BDRip, Профессиональный (мн ...
  • Чемпионат Европы 2012 / Группа C / 1-й тур / Ирландия — Хорватия / ТРК Футб ...
  • Олимпиада 2012 / Футбол / Мужчины / Группа A / 3-й тур / Великобритания - У ...
  • Tank Feat. T.I. & Kris Stephens / Compliments [2012, RnB,Hip-Hop, HDRip]
  • Супершторм в Сиэтле / Seattle Superstorm (Джейсон Бурк, фантастика, боевик ...
  • Олимпиада 2012 / Женщины, Мужчины / Плавание / Квалификация / НТВ+ [30.07.2 ...
  • Три балбеса / The Three Stooges (Бобби Фаррелли, Питер Фаррелли, Комедия, 2 ...
  • Табу / Tabu (Мигель Гомеш, Драма, мелодрама, 2012) [DVDRip, Профессиональны ...
  • Информация
    Посетители, находящиеся в группе Гости, не могут оставлять комментарии к данной публикации.