вход на сайт

Имя пользователя :
Пароль :

Восстановление пароля Регистрация
Мёбиус / Mоbius (Эрик Рошан, триллер, драма, 2013) [HDRip, Дублированный + Оригинал (английский)]
Рейтинг:
(голосов: 1)



[img]{THEME}/images/logopost.png[/img]



Мёбиус / Mоbius
«Можно играть в политику, играть с деньгами, с доверием, но только не с любовью»



Год выпуска: 2013
Страна: Франция, Бельгия, Люксембург
Производство: Centre National de la Cinématographie (CNC)
Жанр: триллер, драма

Режиссер: Эрик Рошан
В ролях: Жан Дюжарден, Сесиль Де Франс, Тим Рот, Эмили Декьенн, Владимир Меньшов, Алексей Горбунов, Бранка Катич, Максим Виторган, Эрик Вьеллар, Прасанна Пуванараджа

Перевод: Дублированный + Оригинал (английский)
Субтитры: Отсутствуют

Описание: Жестокий и хладнокровный офицер с мрачным характером и проницательным умом, тайный агент ФСБ по кличке Моисей, ведет дело крупного российского олигарха, которого подозревают в фантастических финансовых махинациях. Кажется, он уже наступил на хвост змеи, но тут в его жизнь врывается страсть. Он, никогда в жизни не знавший нежных чувств, влюбляется в Алису, работающую трейдером в банковской структуре преступного олигарха. Что будет утром, когда окончится горячая любовная ночь?



Премьера (мир): 17 февраля 2013, ...
Премьера (РФ): 21 марта 2013, «Парадиз»

МедиаИнфо ▼Text

D:Mobius.2013.D.HDRip.avi
General
Complete name : D:Mobius.2013.D.HDRip.avi
Format : AVI
Format/Info : Audio Video Interleave
Format profile : OpenDML
File size : 2.10 GiB
Duration : 1h 48mn
Overall bit rate : 2 773 Kbps
Writing application : VirtualDubMod 1.5.10.2 (build 2540/release)
Writing library : VirtualDubMod build 2540/release
Video #0
ID : 0
Format : MPEG-4 Visual
Format profile : Advanced [email protected]
Format settings, BVOP : Yes
Format settings, QPel : No
Format settings, GMC : No warppoints
Format settings, Matrix : Default (MPEG)
Muxing mode : Packed bitstream
Codec ID : XVID
Codec ID/Hint : XviD
Duration : 1h 48mn
Bit rate : 1 987 Kbps
Width : 720 pixels
Height : 304 pixels
Display aspect ratio : 2.35:1
Frame rate : 24.000 fps
Color space : YUV
Chroma subsampling : 4:2:0
Bit depth : 8 bits
Scan type : Progressive
Compression mode : Lossy
Bits/(Pixel*Frame) : 0.378
Stream size : 1.50 GiB (72%)
Writing library : XviD 1.2.1 (UTC 2008-12-04)
Audio #1
ID : 1
Format : AC-3
Format/Info : Audio Coding 3
Mode extension : CM (complete main)
Codec ID : 2000
Duration : 1h 48mn
Bit rate mode : Constant
Bit rate : 384 Kbps
Channel(s) : 6 channels
Channel positions : Front: L C R, Side: L R, LFE
Sampling rate : 48.0 KHz
Bit depth : 16 bits
Compression mode : Lossy
Video delay : 14ms
Stream size : 297 MiB (14%)
Alignment : Split accross interleaves
Interleave, duration : 42 ms (1.00 video frame)
Interleave, preload duration : 500 ms
Audio #2
ID : 2
Format : AC-3
Format/Info : Audio Coding 3
Mode extension : CM (complete main)
Codec ID
0619d59867ed6f975f845819b297096a458d3c89Мёбиус / Mоbius (Эрик Рошан, триллер, драма, 2013) [HDRip, Дублированный + Оригинал (английский)] Мёбиус / Mоbius (Эрик Рошан, триллер, драма, 2013) [HDRip, Дублированный + Оригинал (английский)] " />

Аплоадер: Админ, дата: 21-06-2013, 09:35, торрент скачан: 359 раз

Понравилась раздача? Посмотрите эти:
  • Погнали! / Getaway (Кортни Соломон, Боевик, Криминал, 2013) [HDRip, Професс ...
  • Вирус / Flu (Ким Сон Су, Драма, 2013) [HDTVRip, Любительский (двухголосый з ...
  • Верное дельце / Une pure affaire (Александр Коффре, Боевик, Комедия, Кримин ...
  • Мои герои / Mes heros (Эрик Беснард, комедия, 2012) [HDRip, Профессиональны ...
  • Посылка / The Package (Джесси Джонсон, боевик, 2013) [HDRip, Профессиональн ...
  • Мёбиус / Mobius (Эрик Рошан, триллер, драма, 2013) [HDRip, Профессиональный ...
  • Мёбиус / Mоbius (Эрик Рошан, триллер, драма, 2013) [BDRip 720p, Профессиона ...
  • Мёбиус / Mobius (Эрик Рошан, триллер, драма, 2013) [HDRip, Профессиональный ...
  • Мёбиус / Mоbius (Эрик Рошан, триллер, драма, 2013) Blu-Ray Remux (1080p), Д ...
  • Мужество / Wymyk (Грег Зглински, драма, 2011) [DVDRip, Любительский (одного ...
  • Мёбиус / Mobius (Эрик Рошан, триллер, драма, 2013) [HDRip-AVC, Профессионал ...
  • [iPhone, iPod] Мёбиус / Mobius (Эрик Рошан, триллер, драма, 2013) [640x272] ...
  • Мёбиус / Mоbius (Эрик Рошан, триллер, драма, 2013) [HDRip-AVC, Дублированны ...
  • Слабые проблески / Rushlights (Энтони Стац, Триллер, Мелодрама, Криминал, 2 ...
  • Поймай толстуху, если сможешь [Театральная версия] / Identity Thief [Theatr ...
  • Звук моего голоса / Sound of My Voice (Зал Батманглидж, триллер, драма, 201 ...
  • Слепой поворот / Blind Turn (Роберт Орр, Триллер, драма, детектив, 2012) [W ...
  • 23:59 / 23:59 (Гилберт Чан, Ужасы, 2011) [HDRip, Любительский (одноголосый ...
  • Захват / Carjacked (Джон Бонито, триллер, 2011)[BDRip, Профессиональный (мн ...
  • Супершторм в Сиэтле / Seattle Superstorm (Джейсон Бурк, фантастика, боевик ...
  • Информация
    Посетители, находящиеся в группе Гости, не могут оставлять комментарии к данной публикации.