вход на сайт

Имя пользователя :
Пароль :

Восстановление пароля Регистрация
Кровь / Blood (Ник Мерфи, Триллер, детектив, 2012) [BDRip-AVC, Профессиональный (многоголосый закадровый), Оригинал (Английский), Sub]
Рейтинг:
(голосов: 1)



[img]{THEME}/images/logopost.png[/img]



Кровь / Blood
«Забытые преступления не исчезают»

Год выпуска: 2012
Страна: Великобритания
Производство: Neal Street Productions, BBC Films, IM Global, Quickfire Films, Red Production Company
Жанр: Триллер, детектив

Режиссёр: Ник Мерфи
В ролях: Пол Беттани, Стивен Грэм, Марк Стронг, Брайан Кокс, Зои Таппер, Бен Кромптон, Ник Мерфи, Наташа Литтл, Эдриен Эдмондсон, Патрик Херд-Вуд

Перевод: Профессиональный (многоголосый закадровый), Оригинал (Английский)
Субтитры: Английские, русские

Описание: Жестоко убита красивая девушка. Есть подозреваемый. Казалось бы, все просто. Но расследование, которое ведут два молодых брата-полицейских, начинает развиваться в совершенно неожиданном направлении. Вместо поиска убийцы и раскрытия преступления, совершенного в настоящем, цепь событий неуклонно уводит братьев в сторону преступлений, совершенных в прошлом. Преступлений, которые должны были оказаться навеки забытыми.



Автор рипа:

Качество: BDRip-AVC | Сэмпл | исх.Blood.Bluray Remux
Продолжительность: 01:32:26

Формат: MKV
Видео кодек: x.264
Аудио кодек: AC3
Видео: x.264 / 1280x544 / 2,35:1 / 2627 kbps / 23,976 fps / 0.157 bit/pixel
Аудио#1: Русский / AC3 Dolby Digital / 48 KHz / 384 kbps / 3/2 (L,C,R,l,r) + LFE ch
Аудио#2: Английский / AC3 Dolby Digital / 48 KHz / 384 kbps / 3/2 (L,C,R,l,r) + LFE ch

Премьера (мир): 11 октября 2012
релиз на Blu-Ray: 19 июня 2013, «Кармен Видео»

Media Info ▼Общее
Уникальный идентификатор : 238253772275022594066598502510599003743 (0xB33E01E781D2C05ABAF44C508A76DE5F)
Полное имя : Krov.2012.P.BDRip.720p.potroks.mkv
Формат : Matroska
Версия формата : Version 2
Размер файла : 2,19 Гбайт
Продолжительность : 1 ч. 32 м.
Общий поток : 3392 Кбит/сек
Название фильма : -=POTROKS=-
Дата кодирования : UTC 2013-06-19 15:54:53
Программа кодирования : mkvmerge v5.9.0 (On The Loose) built on Dec 15 2012 16:39:58
Библиотека кодирования : libebml v1.3.0 + libmatroska v1.4.0

Видео
Идентификатор : 1
Формат : AVC
Формат/Информация : Advanced Video Codec
Профиль формата : [email protected]
Параметр CABAC формата : Да
Параметр ReFrames формата : 11 кадров
Идентификатор кодека : V_MPEG4/ISO/AVC
Продолжительность : 1 ч. 32 м.
Битрейт : 2627 Кбит/сек
Ширина : 1280 пикселей
Высота : 544 пикселя
Соотношение сторон : 2,35:1
Режим частоты кадров : Постоянный
Частота кадров : 23,976 кадра/сек
Цветовое пространство : YUV
Субдискретизация насыщенности : 4:2:0
Битовая глубина : 8 бит
Тип развёртки : Прогрессивная
Бит/(Пиксели*Кадры) : 0.157
Размер потока : 1,65 Гбайт (75%)
Заголовок : Blood
Библиотека кодирования : x264 core 125 r2208 d9d2288
Настройки программы : cabac=1 / ref=11 / deblock=1:-2:-2 / analyse=0x3:0x133 / me=umh / subme=11 / psy=1 / psy_rd=0.98:0.02 / mixed_ref=1 / me_range=32 / chroma_me=1 / trellis=2 / 8x8dct=1 / cqm=0 / deadzone=21,11 / fast_pskip=0 / chroma_qp_offset=-3 / threads=9 / lookahead_threads=1 / sliced_threads=0 / nr=0 / decimate=1 / interlaced=0 / bluray_compat=0 / constrained_intra=0 / bframes=12 / b_pyramid=2 / b_adapt=2 / b_bias=0 / direct=3 / weightb=1 / open_gop=0 / weightp=2 / keyint=240 / keyint_min=23 / scenecut=40 / intra_refresh=0 / rc_lookahead=150 / rc=2pass / mbtree=1 / bitrate=2627 / ratetol=1.0 / qcomp=0.70 / qpmin=0 / qpmax=69 / qpstep=4 / cplxblur=20.0 / qblur=0.5 / vbv_maxrate=20000 / vbv_bufsize=20000 / nal_hrd=none / ip_ratio=1.35 / aq=1:0.70
Язык : English
Default : Да
Forced : Нет

Аудио #1
Идентификатор : 2
Формат : AC-3
Формат/Информация : Audio Coding 3
Расширение режима : CM (complete main)
Параметр Endianness формата : Big
Идентификатор кодека : A_AC3
Продолжительность : 1 ч. 32 м.
Вид битрейта : Постоянный
Битрейт : 384 Кбит/сек
Каналы : 6 каналов
Расположение каналов : Front: L C R, Side: L R, LFE
Частота : 48,0 КГц
Битовая глубина : 16 бит
Метод сжатия : С потерями
Размер потока : 253 Мбайт (
7da8236c961e0b7e1b2209285881709765b7f9efКровь / Blood (Ник Мерфи, Триллер, детектив, 2012) [BDRip-AVC, Профессиональный (многоголосый закадровый), Оригинал (Английский), Sub] Кровь / Blood (Ник Мерфи, Триллер, детектив, 2012) [BDRip-AVC, Профессиональный (многоголосый закадровый), Оригинал (Английский), Sub] " />

Аплоадер: Админ, дата: 20-06-2013, 00:03, торрент скачан: 359 раз

Понравилась раздача? Посмотрите эти:
  • Ночь страха 2: Свежая кровь / Fright Night 2: New Blood (Эдуардо Родригез, ...
  • Ночь страха 2: Свежая кровь / Fright Night 2: New Blood (Эдуардо Родригез, ...
  • Погнали! / Getaway (Кортни Соломон, боевик, криминал, 2013) [BDRip-AVC, Про ...
  • Невероятный Бёрт Уандерстоун / The Incredible Burt Wonderstone (Дон Скардин ...
  • Никто не выжил / No One Lives (Рюхэй Китамура, Триллер, ужасы, 2012) [BDRip ...
  • Кровь / Blood (Ник Мерфи, Триллер, детектив, 2012) [HDRip, Профессиональный ...
  • Кровь / Blood (Ник Мерфи, Триллер, детектив, 2012) [BDRip 720p, Профессиона ...
  • Кровь / Blood (Ник Мерфи, Триллер, детектив, 2012) [BDRip 1080p, Профессион ...
  • Кровь / Blood (Ник Мерфи, Триллер, детектив, 2012) [BDRip-AVC, Профессионал ...
  • Кровь / Blood (Ник Мерфи, триллер, детектив, криминал, 2012) [BDRip-AVC, Пр ...
  • Кровь / Blood (Ник Мерфи, Триллер, Детектив, Криминал, 2012) [HDRip, Профес ...
  • Летучий отряд Скотланд-Ярда / The Sweeney (Ник Лав, Боевик, драма, криминал ...
  • Невероятный Бёрт Уандерстоун / The Incredible Burt Wonderstone (Дон Скардин ...
  • Залив / The Bay (Барри Левинсон, Ужасы, фантастика, триллер, 2012) [BDRip-A ...
  • Порочные игры / Stoker (Пак Чхан Ук, Триллер, драма, детектив, 2013) [BDRip ...
  • Порочные игры / Stoker (Пак Чхан Ук, Триллер, драма, детектив, 2013) [BDRip ...
  • Фантомы / Shutter (Масаюки Очиай, ужасы, триллер, детектив, 2008) [BDRip-AV ...
  • Мама / Mama (Андрес Мускетти, ужасы, фэнтези, триллер, 2013) [BDRip-AVC, Пр ...
  • Пакт / The Pact (Николас МакКарти, ужасы, триллер, детектив, 2012) [BDRip-A ...
  • Суррогат / The Sessions (Бен Луин, Драма, 2012) [BDRip-AVC, Профессиональны ...
  • Информация
    Посетители, находящиеся в группе Гости, не могут оставлять комментарии к данной публикации.