вход на сайт

Имя пользователя :
Пароль :

Восстановление пароля Регистрация
Кровь / Blood (Ник Мерфи, Триллер, детектив, 2012) [BDRip-AVC, Профессиональный (многоголосый закадровый), Оригинал (Английский), Sub]
Рейтинг:
(голосов: 1)



[img]{THEME}/images/logopost.png[/img]



Кровь / Blood
«Забытые преступления не исчезают»

Год выпуска: 2012
Страна: Великобритания
Производство: Neal Street Productions, BBC Films, IM Global, Quickfire Films, Red Production Company
Жанр: Триллер, детектив

Режиссёр: Ник Мерфи
В ролях: Пол Беттани, Стивен Грэм, Марк Стронг, Брайан Кокс, Зои Таппер, Бен Кромптон, Ник Мерфи, Наташа Литтл, Эдриен Эдмондсон, Патрик Херд-Вуд

Перевод: Профессиональный (многоголосый закадровый), Оригинал (Английский)
Субтитры: Русские, английские

Описание: Жестоко убита красивая девушка. Есть подозреваемый. Казалось бы, все просто. Но расследование, которое ведут два молодых брата-полицейских, начинает развиваться в совершенно неожиданном направлении. Вместо поиска убийцы и раскрытия преступления, совершенного в настоящем, цепь событий неуклонно уводит братьев в сторону преступлений, совершенных в прошлом. Преступлений, которые должны были оказаться навеки забытыми.



Релиз:
Автор рипа: kaspr

Качество: BDRip-AVC | Сэмпл
Продолжительность: 01:32:26

Формат: MKV
Видео кодек: x.264
Аудио кодек: AC3
Видео: x.264 / 1024x436 / 2,35:1 / 1800 kbps / 23,976 fps / 0.168 bit/pixel
Аудио#1: Русский / AC3 Dolby Digital / 48 KHz / 448 kbps / 3/2 (L,C,R,l,r) + LFE ch
Аудио#2: Английский / AC3 Dolby Digital / 48 KHz / 448 kbps / 3/2 (L,C,R,l,r) + LFE ch

Премьера (мир): 11 октября 2012
релиз на Blu-Ray: 19 июня 2013, «Кармен Видео»

Media Info ▼Общее
Уникальный идентификатор : 225836456565777603061391516291926050340 (0xA9E684F8EF25257C9109B28436BBC624)
Полное имя : D:Mои раздачиKrovj.2012.BDRip.(AVC)-MediaClub.mkv
Формат : Matroska
Версия формата : Version 2
Размер файла : 1,69 Гбайт
Продолжительность : 1 ч. 32 м.
Общий поток : 2624 Кбит/сек
Название фильма : Кровь (MediaClub-kaspr)
Дата кодирования : UTC 2013-06-18 04:28:28
Программа кодирования : mkvmerge v5.7.0 (The Whirlwind) built on Aug 7 2012 14:11:40
Библиотека кодирования : libebml v1.2.3 + libmatroska v1.3.0

Видео
Идентификатор : 1
Формат : AVC
Формат/Информация : Advanced Video Codec
Профиль формата : [email protected]
Параметр CABAC формата : Да
Параметр ReFrames формата : 9 кадров
Идентификатор кодека : V_MPEG4/ISO/AVC
Продолжительность : 1 ч. 32 м.
Битрейт : 1800 Кбит/сек
Ширина : 1024 пикселя
Высота : 436 пикселей
Соотношение сторон : 2,35:1
Режим частоты кадров : Постоянный
Частота кадров : 23,976 кадра/сек
Цветовое пространство : YUV
Субдискретизация насыщенности : 4:2:0
Битовая глубина : 8 бит
Тип развёртки : Прогрессивная
Бит/(Пиксели*Кадры) : 0.168
Размер потока : 1,12 Гбайт (66%)
Заголовок : Кровь (MediaClub-kaspr)
Библиотека кодирования : x264 core 133 r2334 a3ac64b
Настройки программы : cabac=1 / ref=9 / deblock=1:-3:-3 / analyse=0x3:0x133 / me=umh / subme=11 / psy=1 / psy_rd=1.00:0.10 / mixed_ref=1 / me_range=32 / chroma_me=1 / trellis=2 / 8x8dct=1 / cqm=0 / deadzone=21,11 / fast_pskip=0 / chroma_qp_offset=-3 / threads=12 / lookahead_threads=3 / sliced_threads=0 / nr=0 / decimate=0 / interlaced=0 / bluray_compat=0 / constrained_intra=0 / bframes=10 / b_pyramid=2 / b_adapt=2 / b_bias=0 / direct=3 / weightb=1 / open_gop=0 / weightp=2 / keyint=240 / keyint_min=22 / scenecut=40 / intra_refresh=0 / rc=2pass / mbtree=0 / bitrate=1800 / ratetol=1.0 / qcomp=0.60 / qpmin=0 / qpmax=69 / qpstep=4 / cplxblur=20.0 / qblur=0.5 / ip_ratio=1.40 / pb_ratio=1.30 / aq=1:1.00
Default : Да
Forced : Да

Аудио #1
Идентификатор : 2
Формат : AC-3
Формат/Информация : Audio Coding 3
Расширение режима : CM (complete main)
Параметр Endianness формата : Big
Идентификатор кодека : A_AC3
Продолжительность : 1 ч. 32 м.
Вид битрейта : Постоянный
Битрейт : 384 Кбит/сек
Каналы : 6 каналов
Расположение каналов : Front: L C R, Side: L R, LFE
Частота : 48,0 КГц
Битовая глубина : 16 бит
Метод сжатия : С потерями
Размер потока : 254 Мбайт (15%)
Заголовок : WMO
Язык : Russian
D
904300087048357a827e34891f30bfaa9dbb745cКровь / Blood (Ник Мерфи, Триллер, детектив, 2012) [BDRip-AVC, Профессиональный (многоголосый закадровый), Оригинал (Английский), Sub] Кровь / Blood (Ник Мерфи, Триллер, детектив, 2012) [BDRip-AVC, Профессиональный (многоголосый закадровый), Оригинал (Английский), Sub] " />

Аплоадер: Админ, дата: 18-06-2013, 17:38, торрент скачан: 359 раз

Понравилась раздача? Посмотрите эти:
  • Ночь страха 2: Свежая кровь / Fright Night 2: New Blood (Эдуардо Родригез, ...
  • Ночь страха 2: Свежая кровь / Fright Night 2: New Blood (Эдуардо Родригез, ...
  • Погнали! / Getaway (Кортни Соломон, боевик, криминал, 2013) [BDRip 1080p, П ...
  • Странный Томас / Odd Thomas (Стивен Соммерс, триллер, детектив, 2013) [BDRi ...
  • Погнали! / Getaway (Кортни Соломон, боевик, криминал, 2013) [BDRip-AVC, Про ...
  • 11.6 / 11.6 (Филипп Годо, Драма, триллер, криминал, 2013) [BDRip-AVC, Профе ...
  • Византия / Byzantium (Нил Джордан, Фэнтези, триллер, драма, 2012) [BDRip 10 ...
  • Иллюзия обмана / Now You See Me [Extended Cut] (Луи Летерье, триллер, крими ...
  • Заклятие / The Conjuring (Джеймс Ван, ужасы, триллер, 2013) [BDRip 1080p, Д ...
  • Война миров Z / World War Z [Theatrical Cut] (Марк Форстер, ужасы, фантасти ...
  • Кровь / Blood (Ник Мерфи, Триллер, детектив, 2012) [HDRip, Профессиональный ...
  • Кровь / Blood (Ник Мерфи, Триллер, детектив, 2012) [BDRip 720p, Профессиона ...
  • Кровь / Blood (Ник Мерфи, Триллер, детектив, 2012) [BDRip 1080p, Профессион ...
  • Кровь / Blood (Ник Мерфи, Триллер, детектив, 2012) [BDRip-AVC, Профессионал ...
  • Кровь / Blood (Ник Мерфи, триллер, детектив, криминал, 2012) [BDRip-AVC, Пр ...
  • Кровь / Blood (Ник Мерфи, Триллер, Детектив, Криминал, 2012) [HDRip, Профес ...
  • Летучий отряд Скотланд-Ярда / The Sweeney (Ник Лав, Боевик, драма, криминал ...
  • Залив / The Bay (Барри Левинсон, Ужасы, фантастика, триллер, 2012) [BDRip-A ...
  • Порочные игры / Stoker (Пак Чхан Ук, Триллер, драма, детектив, 2013) [BDRip ...
  • Порочные игры / Stoker (Пак Чхан Ук, Триллер, драма, детектив, 2013) [BDRip ...
  • Рикошет / Ricochet (Ник Гомез, драма, детектив, 2011) [BDRip-AVC, Профессио ...
  • Перелом / Fracture (Грегори Хоблит, Триллер, драма, криминал, детектив, 200 ...
  • Ворон / The Raven (Джеймс МакТиг, Триллер, детектив, 2012) [BDRip 1080p, Ду ...
  • Даю год / I Give It a Year (Дэн Мазер, мелодрама, комедия, 2012) [BDRip-AVC ...
  • Суррогат / The Sessions (Бен Луин, Драма, 2012) [BDRip-AVC, Профессиональны ...
  • Информация
    Посетители, находящиеся в группе Гости, не могут оставлять комментарии к данной публикации.