вход на сайт

Имя пользователя :
Пароль :

Восстановление пароля Регистрация
Стукач / Snitch (Рик Роман Во, Триллер, драма, 2013) [BDRip-AVC, Дубляж, Оригинал (английский), Sub]
Рейтинг:
(голосов: 1)



[img]{THEME}/images/logopost.png[/img]



Стукач / Snitch
«Как далеко ты можешь зайти, чтобы спасти своего сына?»


Год выпуска: 2013
Страна: США, ОАЭ
Производство: Exclusive Media Group, Front Street Productions, Imagenation Abu Dhabi FZ, Participant Media, Spitfire Pictures, Summit Entertainment
Жанр: Триллер, драма

Режиссёр: Рик Роман Во
В ролях: Дуэйн Джонсон, Барри Пеппер, Джон Бернтал, Сьюзен Сарандон, Майкл К. Уильямс, Рафи Гаврон, Мелина Канакаредес, Надин Веласкес, Бенджамин Брэтт, Лела Лорен

Перевод: Дубляж, Оригинал (английский)
Субтитры: Английские, английские (SDH / Color), русские

Описание: Ради спасения сына, которому грозит срок за продажу наркотиков, отец идет на сделку с полицией. Он должен внедриться в самое сердце наркомафии.



Автор рипа:

Качество: BDRip-AVC | исх. Stukach.2013.US.BD-Remux
Продолжительность: 01:51:52 час.

Формат: MKV
Видео кодек: x264
Аудио кодек: AC3
Видео: 1280x534 (2.40:1), 23.976 fps, x264 ~2 019 kbps avg, 0.123 bit/pixel
Аудио #1: 48 kHz, AC3 Dolby Digital, 3/2 (L,C,R,l,r) + LFE ch, 384.00 kbps | Дубляж
Аудио #2: 48 kHz, AC3 Dolby Digital, 3/2 (L,C,R,l,r) + LFE ch, 384.00 kbps | Оригинал (английский)

Дата премьеры (мир): 21 февраля 2013
Дата премьеры (РФ): 21 февраля 2013, «Парадиз»

"MediaInfo" ▼Общее
Уникальный идентификатор : 215676901778575351926909127138748754921 (0xA241DC3F8E9524C390BC579588E16BE9)
Полное имя : Stukach.2013.D.BDRip.720p.potroks.mkv
Формат : Matroska
Версия формата : Version 4 / Version 2
Размер файла : 2,19 Гбайт
Продолжительность : 1 ч. 52 м.
Общий поток : 2788 Кбит/сек
Название фильма : -=POTROKS=-
Дата кодирования : UTC 2013-06-09 07:04:36
Программа кодирования : mkvmerge v5.9.0 (On The Loose) built on Dec 15 2012 16:39:58
Библиотека кодирования : libebml v1.3.0 + libmatroska v1.4.0

Видео
Идентификатор : 1
Формат : AVC
Формат/Информация : Advanced Video Codec
Профиль формата : [email protected]
Параметр CABAC формата : Да
Параметр ReFrames формата : 11 кадров
Идентификатор кодека : V_MPEG4/ISO/AVC
Продолжительность : 1 ч. 52 м.
Битрейт : 2019 Кбит/сек
Ширина : 1280 пикселей
Высота : 534 пикселя
Соотношение сторон : 2,40:1
Режим частоты кадров : Постоянный
Частота кадров : 23,976 кадра/сек
Цветовое пространство : YUV
Субдискретизация насыщенности : 4:2:0
Битовая глубина : 8 бит
Тип развёртки : Прогрессивная
Бит/(Пиксели*Кадры) : 0.123
Размер потока : 1,54 Гбайт (70%)
Заголовок : Snitch
Библиотека кодирования : x264 core 125 r2208 d9d2288
Настройки программы : cabac=1 / ref=11 / deblock=1:-2:-2 / analyse=0x3:0x133 / me=umh / subme=11 / psy=1 / psy_rd=1.03:0.00 / mixed_ref=1 / me_range=32 / chroma_me=1 / trellis=2 / 8x8dct=1 / cqm=0 / deadzone=21,11 / fast_pskip=0 / chroma_qp_offset=-2 / threads=9 / lookahead_threads=1 / sliced_threads=0 / nr=0 / decimate=1 / interlaced=0 / bluray_compat=0 / constrained_intra=0 / bframes=12 / b_pyramid=2 / b_adapt=2 / b_bias=0 / direct=3 / weightb=1 / open_gop=0 / weightp=2 / keyint=240 / keyint_min=23 / scenecut=40 / intra_refresh=0 / rc_lookahead=150 / rc=2pass / mbtree=1 / bitrate=2019 / ratetol=1.0 / qcomp=0.70 / qpmin=0 / qpmax=69 / qpstep=4 / cplxblur=20.0 / qblur=0.5 / vbv_maxrate=50000 / vbv_bufsize=62500 / nal_hrd=none / ip_ratio=1.35 / aq=1:0.80
Язык : English
Default : Да
Forced : Нет

Аудио #1
Идентификатор : 2
Формат : AC-3
Формат/Информация : Audio Coding 3
Расширение режима : CM (complete main)
Параметр Endianness формата : Big
Идентификатор кодека : A_AC3
Продолжительность : 1 ч. 52 м.
Вид битрейта : Постоянный
Битрейт : 384 Кбит/сек
Каналы : 6 каналов
Расположение каналов : Front: L C R, Side: L R, LFE
Частота : 48,0 КГц
Битовая глубина : 16 бит
Метод сжатия : С потерями
Размер потока : 308 Мбайт (14%)
Заголовок : Dub | DD 5.1 @ 384 kbps
Язык : Russian
Default : Да
Forced : Да

Аудио #2
Идентификатор : 3
Формат : AC-3
Формат/Информация : Audio Coding 3
Расширение режима : CM (complete main)
Пара
ce221dda5378b47f8fdebda152e7ff9c9386e847Стукач / Snitch (Рик Роман Во, Триллер, драма, 2013) [BDRip-AVC, Дубляж, Оригинал (английский), Sub] Стукач / Snitch (Рик Роман Во, Триллер, драма, 2013) [BDRip-AVC, Дубляж, Оригинал (английский), Sub] " />

Аплоадер: Админ, дата: 9-06-2013, 14:28, торрент скачан: 359 раз

Понравилась раздача? Посмотрите эти:
  • Стукач / Snitch (Рик Роман Во, триллер, драма, криминал, 2013) [BDRip, Авто ...
  • Стукач / Snitch (Рик Роман Во, Триллер, драма, 2013) [BDRip, Дубляж]
  • Стукач / Snitch (Рик Роман Во, Триллер, драма, 2013) [BDRip-AVC, Дубляж + О ...
  • Тревожный вызов / The Call (Брэд Андерсон, Триллер, 2013) [BDRip-AVC, Профе ...
  • Никто не выжил / No One Lives (Рюхэй Китамура, Триллер, ужасы, 2012) [BDRip ...
  • Стукач / Snitch (Рик Роман Во, Триллер, драма, криминал, 2013) [Blu-ray [RU ...
  • Стукач / Snitch (Рик Роман Во, Триллер, драма, криминал, 2013) [BDRip 1080p ...
  • Стукач / Snitch (Рик Роман Во, Триллер, драма, криминал, 2013) [BDRip 720p, ...
  • Стукач / Snitch (Рик Роман Во, Триллер, драма, криминал, 2013) [BDRip 1080p ...
  • Порочные игры / Stoker (Пак Чхан Ук, Триллер, драма, детектив, 2013) [BDRip ...
  • Порочные игры / Stoker (Пак Чхан Ук, Триллер, драма, детектив, 2013) [BDRip ...
  • Стукач / Snitch (Рик Роман Во, триллер, драма, 2013) [BDRip-AVC 1080p, Дуб ...
  • Стукач / Snitch (Рик Роман Во, Триллер, драма, 2013) [BDRip-AVC, Дубляж, Su ...
  • Стукач / Snitch (Рик Роман Во, Триллер, драма, 2013) [BDRip, Дубляж]
  • Стукач / Snitch (Рик Роман Во, Триллер, драма, 2013) [BDRip-AVC, Дубляж, Ор ...
  • Стукач / Snitch (Рик Роман Во, Триллер, драма, 2013) [BDRip, Дубляж]
  • Стукач / Snitch (Рик Роман Во, Триллер, драма, 2013) [BDRemux 1080p, Дубляж ...
  • Стукач / Snitch (Рик Роман Во, боевик, триллер, драма, 2013) [BDRip 720p, П ...
  • Стукач / Snitch (Рик Роман Во, триллер, драма, 2013) [DVD5, Профессиональны ...
  • Стукач / Snitch (Рик Роман Во, Триллер, драма, 2013) [HDRip-AVC, Дубляж]
  • Стукач / Snitch (Рик Роман Во, боевик, триллер, драма, 2013) [BDRip, Профес ...
  • [iPhone, iPod] Стукач / Snitch (Рик Роман Во, триллер, драма, 2013) [640x27 ...
  • Стукач / Snitch (Рик Роман Во, боевик, триллер, драма, 2013) [HDRip, Профес ...
  • Стукач / Snitch (Рик Роман Во, триллер, драма, 2013) [HDRip, Дублированный ...
  • [Трейлер] Стукач / Snitch (Рик Роман Во, боевик, триллер, драма) [HDRip, Пр ...
  • Информация
    Посетители, находящиеся в группе Гости, не могут оставлять комментарии к данной публикации.