вход на сайт

Имя пользователя :
Пароль :

Восстановление пароля Регистрация
Ледяной / The Iceman (Ариэль Вромен, триллер, драма, криминал, биография, 2012) [HDRip, Профессиональный (многоголосый, закадровый)]
Рейтинг:
(голосов: 1)



[img]{THEME}/images/logopost.png[/img]



Ледяной / The Iceman
«Любящий муж. Преданный отец. Безжалостный убийца.»



Год выпуска: 2012
Страна: США
Производство: Millennium Films
Жанр: триллер, драма, криминал, биография

Режиссер: Ариэль Вромен
В ролях: Майкл Шеннон, Вайнона Райдер, Рэй Лиотта, Крис Эванс, Дэвид Швиммер, Роберт Дави, Дэнни А. Абекейзер, Джон Вентимилья, Райан О’Нан, МакКали Миллер

Перевод: Профессиональный (многоголосый, закадровый)
Субтитры: Отсутствуют

Описание: Криминальный байопик проливает свет на историю о наемном убийце Ричарде Куклински, сумевшем долгое время параллельно вести две абсолютно взаимоисключающие жизни: с одной стороны он жестокий киллер, с другой — образцовый семьянин. За 20 лет Куклински убил сотни человек и прославился под прозвищем «Ледяной» за то, что замораживал трупы своих жертв в промышленных рефрижераторах. Однако зыбкое равновесие между криминальными делами и семейным счастьем обречено было однажды разрушиться.



Дата премьеры (мир): 30 августа 2012, ...
Дата премьеры (РФ): 29 августа 2013, «Utopia Pictures»

МедиаИнфо ▼Text

D:Ledianoy.2012.P.HDRip.700MB.avi
General
Complete name : D:Ledianoy.2012.P.HDRip.700MB.avi
Format : AVI
Format/Info : Audio Video Interleave
File size : 699 MiB
Duration : 1h 45mn
Overall bit rate : 927 Kbps
Writing application : VirtualDubMod 1.5.10.2 (build 2540/release)
Writing library : VirtualDubMod build 2540/release
Video #0
ID : 0
Format : MPEG-4 Visual
Format profile : Advanced [email protected]
Format settings, BVOP : Yes
Format settings, QPel : No
Format settings, GMC : No warppoints
Format settings, Matrix : Default (H.263)
Muxing mode : Packed bitstream
Codec ID : XVID
Codec ID/Hint : XviD
Duration : 1h 45mn
Bit rate : 790 Kbps
Width : 640 pixels
Height : 352 pixels
Display aspect ratio : 16:9
Frame rate : 23.976 fps
Color space : YUV
Chroma subsampling : 4:2:0
Bit depth : 8 bits
Scan type : Progressive
Compression mode : Lossy
Bits/(Pixel*Frame) : 0.146
Stream size : 596 MiB (85%)
Writing library : XviD 1.2.1 (UTC 2008-12-04)
Audio #1
ID : 1
Format : MPEG Audio
Format version : Version 1
Format profile : Layer 3
Codec ID : 55
Codec ID/Hint : MP3
Duration : 1h 45mn
Bit rate mode : Constant
Bit rate : 128 Kbps
Channel(s) : 2 channels
Sampling rate : 48.0 KHz
Compression mode : Lossy
Stream size : 96.5 MiB (14%)
Alignment : Aligned on interleaves
Interleave, duration : 42 ms (1.00 video frame)
Interleave, preload duration : 504 ms
Writing library : LAME3.99r
Encoding settings : -m s -V 4 -q 2 -lowpass 17 -b 128



Качество: HDRip
Продолжительность: 01:26:34

Формат: AVI
Видео кодек: XviD
Аудио кодек: MP3
Видео: 640x352 (1.82:1), 23.976 fps, XviD MPEG-4 ~789 kbps avg, 0.15 bit/pixel
Аудио: 48 kHz, MPEG Layer 3, 2 ch, ~128.00 kbps avg





c275c8e5928668fd968441f2447a29bed5ccc737Ледяной / The Iceman (Ариэль Вромен, триллер, драма, криминал, биография, 2012) [HDRip, Профессиональный (многоголосый, закадровый)] Ледяной / The Iceman (Ариэль Вромен, триллер, драма, криминал, биография, 2012) [HDRip, Профессиональный (многоголосый, закадровый)] " />

Аплоадер: Админ, дата: 21-08-2013, 14:42, торрент скачан: 359 раз

Понравилась раздача? Посмотрите эти:
  • Ледяной / The Iceman (Ариэль Вромен, драма, криминал, биография, 2012) [BDR ...
  • Ледяной / The Iceman (Ариэль Вромен, драма, криминал, биография, 2012) [HDR ...
  • Погнали! / Getaway (Кортни Соломон, Боевик, Криминал, 2013) [HDRip, Професс ...
  • Погнали! / Getaway (Кортни Соломон, Боевик,Криминал, 2013) [HDRip, Професси ...
  • Хладнокровная / Cold Blooded (Джейсон Лапейр, Триллер, криминал, 2012) [WEB ...
  • Посылка / The Package (Джесси Джонсон, боевик, 2013) [HDRip, Профессиональн ...
  • Ледяной / The Iceman (Ариэль Вромен, драма, криминал, биография, 2012) [HDR ...
  • Ледяной / The Iceman (Ариэль Вромен, драма, криминал, биография, 2013) [BDR ...
  • Ледяной / The Iceman (Ариэль Вромен, Драма, криминал, биография, 2012) [BDR ...
  • Ледяной / The Iceman (Ариэль Вромен, Драма, криминал, биография, 2012) [BDR ...
  • Ледяной / The Iceman (Ариэль Вромен / Ariel Vromen, Триллер, Драма, Кримина ...
  • Ледяной / The Iceman (Ариэль Вромен, триллер, драма, криминал, биография, 2 ...
  • 42 / 42 (Брайан Хелгеленд, драма, биография, спорт, 2013) [BDRip, Профессио ...
  • Решала (Роман Асхаев, Драма,Криминал, 2012) [WEB-DLRip, Не требуется]
  • 12 раундов: Перезагрузка / 12 Rounds: Reloaded (Роэль Рейн, Боевик, 2013) [ ...
  • Скуби-Ду! Маска Синего Сокола / Scooby-Doo! Mask Of The Blue Falcon (Оливье ...
  • Чемпионат Европы 2012 / Группа D / 1-й тур / Украина - Швеция / Спорт 1 [11 ...
  • Tank Feat. T.I. & Kris Stephens / Compliments [2012, RnB,Hip-Hop, HDRip]
  • Чемпионат Европы 2012 / Группа B / 1-й тур / Германия - Португалия / Спорт ...
  • Замёрзший мир / 2012: Ice Age (Трэвис Форт, фантастика, боевик, 2011) [HDRi ...
  • [Трейлер] Ледяной / The Iceman (Ариэль Вромен, триллер, драма, криминал) [H ...
  • [Трейлер] Ледяной / The Iceman (Ариэль Вромен, триллер, драма, криминал) [H ...
  • Глушь / Resurrection County (Matt Zettell, ужасы, триллер, 2008) [DVDRip, П ...
  • Искажение / Skew (Сейв Челенз, ужасы, триллер, 2011) [HDRip, Профессиональн ...
  • Ничего, кроме правды / Nothing But the Truth (Род Лури, триллер, драма, 200 ...
  • Информация
    Посетители, находящиеся в группе Гости, не могут оставлять комментарии к данной публикации.