вход на сайт

Имя пользователя :
Пароль :

Восстановление пароля Регистрация
Незнакомец внутри / The Stranger Within (Adam Neutzsky-Wulff, триллер, 2013) [DVDRip-AVC , Профессиональный (многоголосый) ]
Рейтинг:
(голосов: 1)



[img]{THEME}/images/logopost.png[/img]



Незнакомец внутри / The Stranger Within

Год выпуска: 2013
Страна: Дания
Производство: Drama Deluxe, Duckling A/S
Жанр: триллер

Режиссёр: Adam Neutzsky-Wulff
В ролях: Эстелла Уоррен, Уильям Болдуин, Катя Винтер, Сара Батлер, Джеффри Пирс, Ким Бодния, Клер Росс-Браун, Вивьенн МакКи, Оле Дюпон, Roohullah Rohein Hasani

Перевод: Профессиональный (многоголосый)
Субтитры: нет

Описание: Известная актриса Эмили Мур и ее муж психиатр по имени Роберт, решают отдохнуть на удаленном средиземноморском острове. Но в первую же ночь в их дом приходит молодая женщина в истерике от смерти ее парня…



Качество: DVDRip-AVC
Продолжительность: 01:26:50

Формат: MKV
Видео кодек: H.264
Аудио кодек: AC3
Видео: 720x432 @ 1024x432 (2,35:1), 25 fps, H.264 ~2014 kbps avg, 0.259 bit/pixel
Аудио: 48 kHz, AC3, 6 ch, ~384.00 kbps avg(русс)
"Media Info" ▼Общее
Полное имя : Neznakomets.vnutri.2013.D.DVDRip-AVC_[Youtracker]_by_avproh.mkv
Формат : Matroska
Версия формата : Version 2
Размер файла : 1,46 Гбайт
Продолжительность : 1 ч. 26 м.
Общий поток : 2400 Кбит/сек
Дата кодирования : UTC 2013-09-02 02:02:41
Программа кодирования : mkvmerge v5.0.1 (Es ist Sommer) built on Nov 6 2011 16:23:40
Библиотека кодирования : libebml v1.2.2 + libmatroska v1.3.0

Видео
Идентификатор : 1
Формат : AVC
Формат/Информация : Advanced Video Codec
Профиль формата : [email protected]
Параметр CABAC формата : Да
Параметр ReFrames формата : 11 кадров
Идентификатор кодека : V_MPEG4/ISO/AVC
Продолжительность : 1 ч. 26 м.
Битрейт : 2014 Кбит/сек
Ширина : 720 пикселей
Высота : 432 пикселя
Соотношение сторон : 2,35:1
Соотношение сторон в оригинале : 2,35:1
Режим частоты кадров : Постоянный
Частота кадров : 25,000 кадров/сек
Цветовое пространство : YUV
Субдискретизация насыщенности : 4:2:0
Битовая глубина : 8 бит
Тип развёртки : Прогрессивная
Бит/(Пиксели*Кадры) : 0.259
Размер потока : 1,19 Гбайт (82%)
Библиотека кодирования : x264 core 130 r2273 b3065e6
Настройки программы : cabac=1 / ref=11 / deblock=1:-2:-1 / analyse=0x3:0x113 / me=umh / subme=9 / psy=1 / psy_rd=1.00:0.15 / mixed_ref=1 / me_range=32 / chroma_me=1 / trellis=2 / 8x8dct=1 / cqm=0 / deadzone=21,11 / fast_pskip=1 / chroma_qp_offset=-3 / threads=9 / lookahead_threads=2 / sliced_threads=0 / nr=0 / decimate=1 / interlaced=0 / bluray_compat=0 / constrained_intra=0 / bframes=10 / b_pyramid=2 / b_adapt=2 / b_bias=0 / direct=3 / weightb=1 / open_gop=0 / weightp=2 / keyint=240 / keyint_min=24 / scenecut=40 / intra_refresh=0 / rc_lookahead=80 / rc=2pass / mbtree=1 / bitrate=2014 / ratetol=1.0 / qcomp=0.60 / qpmin=0 / qpmax=69 / qpstep=4 / cplxblur=20.0 / qblur=0.5 / ip_ratio=1.40 / aq=2:0.90
Default : Да
Forced : Нет

Аудио
Идентификатор : 2
Формат : AC-3
Формат/Информация : Audio Coding 3
Расширение режима : CM (complete main)
Параметр Endianness формата : Big
Идентификатор кодека : A_AC3
Продолжительность : 1 ч. 26 м.
Вид битрейта : Постоянный
Битрейт : 384 Кбит/сек
Каналы : 6 каналов
Расположение каналов : Front: L C R, Side: L R, LFE
Частота : 48,0 КГц
Битовая глубина : 16 бит
Метод сжатия : С потерями
Размер потока : 238 Мбайт (16%)
Default : Да
Forced : Нет

Стол заказов POWER | Отзывы | Вступление в POWER




c6e0bdfd84b4ebc7c88c7f91424aca4e9188baabНезнакомец внутри / The Stranger Within (Adam Neutzsky-Wulff, триллер, 2013) [DVDRip-AVC , Профессиональный (многоголосый) ] Незнакомец внутри / The Stranger Within (Adam Neutzsky-Wulff, триллер, 2013) [DVDRip-AVC , Профессиональный (многоголосый) ] " />

Аплоадер: Админ, дата: 3-09-2013, 22:26, торрент скачан: 359 раз

Понравилась раздача? Посмотрите эти:
  • Мэрайа Мунди и шкатулка Мидаса / The Adventurer: The Curse of the Midas Box ...
  • Погнали! / Getaway (Кортни Соломон, боевик, криминал, 2013) [BDRip 1080p, П ...
  • Погнали! / Getaway (Кортни Соломон, боевик, криминал, 2013) [BDRip-AVC, Про ...
  • 11.6 / 11.6 (Филипп Годо, Драма, триллер, криминал, 2013) [BDRip-AVC, Профе ...
  • Околофутбола (Антон Борматов, драма, криминал, 2013) [DVDRip-AVC, Не требуе ...
  • Интимные места (Наталья Меркулова, Алексей Чупов, драма, мелодрама, 2013) [ ...
  • Заклятие / The Conjuring (Джеймс Ван, ужасы, триллер, 2013) [BDRip 720р, Ду ...
  • Заклятие / The Conjuring (Джеймс Ван, ужасы, триллер, 2013) [BDRip 1080p, Д ...
  • Марафон (Карен Оганесян, комедия, 2013) [DVDRip-AVC, Не требуется]
  • Филадельфия / Philadelphia (Джонатан Демме, Драма, 1993) [BDRip-AVC, Профес ...
  • Кодовое имя «Джеронимо» / Seal Team Six: The Raid on Osama Bin Laden (Джон ...
  • Рикошет / Ricochet (Ник Гомез, драма, детектив, 2011) [BDRip-AVC, Профессио ...
  • Железяки / Yak (Прапас Чолсаранонт, мультфильм, 2012) [DVDRip-AVC, Професси ...
  • Виолет и Дейзи / Sightseers (Джеффри Флетчер, боевик, триллер, драма, комед ...
  • Даю год / I Give It a Year (Дэн Мазер, мелодрама, комедия, 2012) [BDRip-AVC ...
  • 21 и больше / 21 & Over (Джон Лукас, Скотт Мур, комедия, 2013) [DVDRip-AVC, ...
  • Убей ради меня / Kill for Me (Майкл Гринспен, триллер, драма, 2013) [DVDRip ...
  • Суррогат / The Sessions (Бен Луин, Драма, 2012) [BDRip-AVC, Профессиональны ...
  • Чемпионат Англии 2012-2013 / 25-й тур / Обзор / Суббота / BBC Sport [2013 г ...
  • Чемпионат Мира 2014 | Отборочный турнир | Европа | World Cup Qualifiers - H ...
  • Информация
    Посетители, находящиеся в группе Гости, не могут оставлять комментарии к данной публикации.