вход на сайт

Имя пользователя :
Пароль :

Восстановление пароля Регистрация
Хладнокровная / Cold Blooded (Джейсон Лапейр, Триллер, криминал, 2012) [WEB-DLRip, Профессиональный (двухголосый закадровый) [НТВ+]]
Рейтинг:
(голосов: 1)



[img]{THEME}/images/logopost.png[/img]



Хладнокровная / Cold Blooded
«Who will make it out alive»



Год выпуска: 2012
Страна: Канада
Производство: Guildwood Entertainment
Жанр: Триллер, криминал

Режиссер: Джейсон Лапейр
В ролях: Райан Роббинс, Зои Палмер, Уильям МакДональд, Хусейн Мадхавджи, Томас Митчелл, Серджо Ди Зио, Саманта Бэнтон, Имали Перера, Крис Ратц, Наоми Сникус

Перевод: Профессиональный (двухголосый закадровый)[НТВ+]
Субтитры: Отсутствуют

Описание: Девушка-полицейский охраняет в больнице выжившего после ограбления ювелирного магазина раненого преступника. Через несколько часов в больницу пробираются бандиты, чтобы забрать своего сообщника и выяснить, куда он спрятал бриллианты, а потом убить. Девушке и грабителю предстоит объединить свои усилия и оказать сопротивление головорезам.



Премьера (мир): 2 марта 2012, ...

МедиаИнфо ▼Text

D:Хладнокровная.2012.WEBDLRip.700MB.avi
General
Complete name : D:Хладнокровная.2012.WEBDLRip.700MB.avi
Format : AVI
Format/Info : Audio Video Interleave
File size : 700 MiB
Duration : 1h 26mn
Overall bit rate : 1 135 Kbps
Writing application : VirtualDubMod 1.5.10.2 (build 2540/release)
Writing library : VirtualDubMod build 2540/release
Video #0
ID : 0
Format : MPEG-4 Visual
Format profile : Advanced [email protected]
Format settings, BVOP : Yes
Format settings, QPel : No
Format settings, GMC : No warppoints
Format settings, Matrix : Default (MPEG)
Codec ID : XVID
Codec ID/Hint : XviD
Duration : 1h 26mn
Bit rate : 998 Kbps
Width : 640 pixels
Height : 352 pixels
Display aspect ratio : 16:9
Frame rate : 23.976 fps
Color space : YUV
Chroma subsampling : 4:2:0
Bit depth : 8 bits
Scan type : Progressive
Compression mode : Lossy
Bits/(Pixel*Frame) : 0.185
Stream size : 615 MiB (88%)
Writing library : XviD 1.2.1 (UTC 2008-12-04)
Audio #1
ID : 1
Format : MPEG Audio
Format version : Version 1
Format profile : Layer 3
Mode : Joint stereo
Codec ID : 55
Codec ID/Hint : MP3
Duration : 1h 26mn
Bit rate mode : Constant
Bit rate : 128 Kbps
Channel(s) : 2 channels
Sampling rate : 48.0 KHz
Compression mode : Lossy
Stream size : 78.9 MiB (11%)
Alignment : Aligned on interleaves
Interleave, duration : 42 ms (1.00 video frame)
Interleave, preload duration : 504 ms
Writing library : LAME3.90.3



Качество: WEB-DLRip
Продолжительность: 01:26:11

Формат: AVI
Видео кодек: XviD
Аудио кодек: MP3
Видео: 640x352 (1.82:1), 23.976 fps, XviD build 50 ~997 kbps avg, 0.18 bit/pixel
Аудио: 48 kHz, MPEG Layer 3, 2 ch, ~128.00 kbps avg





e2fb723e4921241845b7766517f11280dd4682edХладнокровная / Cold Blooded (Джейсон Лапейр, Триллер, криминал, 2012) [WEB-DLRip, Профессиональный (двухголосый закадровый) [НТВ+]] Хладнокровная / Cold Blooded (Джейсон Лапейр, Триллер, криминал, 2012) [WEB-DLRip, Профессиональный (двухголосый закадровый) [НТВ+]] " />

Аплоадер: Админ, дата: 28-09-2013, 16:57, торрент скачан: 359 раз

Понравилась раздача? Посмотрите эти:
  • Погнали! / Getaway (Кортни Соломон, Боевик,Криминал, 2013) [HDRip, Професси ...
  • Вирус / Flu (Ким Сон Су, Драма, 2013) [HDTVRip, Любительский (двухголосый з ...
  • Ледяной / The Iceman (Ариэль Вромен, триллер, драма, криминал, биография, 2 ...
  • Слабые проблески / Rushlights (Энтони Стац, Триллер, Мелодрама, Криминал, 2 ...
  • Решала (Роман Асхаев, Драма,Криминал, 2012) [WEB-DLRip, Не требуется]
  • Решала (Роман Асхаев, Драма,Криминал, 2012) [WEB-DLRip, Не требуется]
  • Альбатрос / Albatross (Найал МакКормик, Драма, 2011) [DVDRip, Профессиональ ...
  • Колония / The Colony (Джефф Ренфро, фантастика, боевик, триллер, 2013) [DVD ...
  • Слепой поворот / Blind Turn (Роберт Орр, Триллер, драма, детектив, 2012) [W ...
  • Чемпионат Италии 2012-13 / 36-й тур / Рома — Кьево / НТВ+ [07.05.2013, SD, ...
  • Псы войны / The Dogs of War (Джон Ирвин, боевик, драма, приключения, военны ...
  • Молодежный чемпионат мира 2012 (U-20). Четвертьфинал: Россия - Чехия [02.01 ...
  • Чемпионат Европы 2012 / Группа C / 1-й тур / Ирландия — Хорватия / ТРК Футб ...
  • Чемпионат Европы 2012 / Группа D / 1-й тур / Украина - Швеция / Спорт 1 [11 ...
  • Олимпиада 2012 / Мужчины / Группа D / 1-й тур / Испания — Япония / НТВ+ [Фу ...
  • Олимпиада 2012 / Футбол / Мужчины / Группа A / 3-й тур / Великобритания - У ...
  • Tank Feat. T.I. & Kris Stephens / Compliments [2012, RnB,Hip-Hop, HDRip]
  • Чемпионат Англии 2011-2012 / Championship / 45-й Тур / Обзор Матчей / НТВ+ ...
  • Чемпионат Европы 2012 / Группа B / 1-й тур / Германия - Португалия / Спорт ...
  • NBA Finals 2012 / Sportscenter / В преддверии 3-ей игры / Viasat Sport [Бас ...
  • Супершторм в Сиэтле / Seattle Superstorm (Джейсон Бурк, фантастика, боевик ...
  • Товарищеский матч 2012 / АмаЗулу (ЮАР) - Манчестер Юнайтед (Англия) / MU TV ...
  • Олимпиада 2012 / Женщины, Мужчины / Плавание / Квалификация / НТВ+ [30.07.2 ...
  • Глушь / Resurrection County (Matt Zettell, ужасы, триллер, 2008) [DVDRip, П ...
  • Ничего, кроме правды / Nothing But the Truth (Род Лури, триллер, драма, 200 ...
  • Информация
    Посетители, находящиеся в группе Гости, не могут оставлять комментарии к данной публикации.