вход на сайт

Имя пользователя :
Пароль :

Восстановление пароля Регистрация
Сыщик / Sleuth (Кеннет Брэна, Триллер, драма, детектив, 2007) [BDRip-AVC, Профессиональный (полное дублирование), Оригинал (английский), Авторский (одноголосый, закадровый), Sub]
Рейтинг:
(голосов: 1)



[img]{THEME}/images/logopost.png[/img]



Сыщик / Sleuth
«Obey the rules»

Год выпуска: 2007
Страна: США, Великобритания
Производство: Sony Pictures Classics, Castle Rock Entertainment, Riff Raff Film Productions
Жанр: Триллер, драма, детектив

Режиссёр: Кеннет Брэна
В ролях: Майкл Кейн, Джуд Лоу, Гарольд Пинтер, Кармел О’Салливан

Перевод: Профессиональный (полное дублирование), Оригинал (английский), Авторский (одноголосый, закадровый) - Юрий Сербин
Субтитры: русские, английские

Описание: Преуспевающий автор детективных романов Эндрю Уайк приглашает к себе в гости Майло Тиндла, любовника своей жены. Тот прибывает в роскошный особняк писателя, где получает неожиданное предложение. Сэр Эндрю знает об их связи и даже готов отпустить жену, но на определённых условиях. Хитроумный план включает в себя инсценировку ограбления, махинации со страховкой и весьма пикантные ситуации, что в результате должно обеспечить всем безбедное существование. Писатель и гость вступают в рискованную игру, но ещё неизвестно, кто выйдет из неё победителем.



Качество: BDRip-AVC
Продолжительность: 01:28:41 час.

Формат: MKV
Видео кодек: AVC
Аудио кодек: AC3
Видео: 1200x510 (2.35:1), 23.976 fps, AVC ~3870 kbps avg, 0.26 bit/pixel
Аудио #1: 48 kHz, AC3, 6 ch, ~448.00 kbps avg - Dub
Аудио #2: 48 kHz, AC3, 6 ch, ~448.00 kbps avg - Eng
Аудио #3: 48 kHz, AC3, 6 ch, ~448.00 kbps avg - AVO отдельно

Дата премьеры (мир): 30 августа 2007
Дата премьеры (РФ): 27 марта 2008, «Парадиз»

MediaInfo ▼General
Complete name : E:...Sleuth.2007.BDRip.x264.DD5.1.Rus.Eng-E76.mkv
Format : Matroska
Format version : Version 2
File size : 2.95 GiB
Duration : 1h 28mn
Overall bit rate : 4 763 Kbps
Movie name : Sleuth.2007.BDRip.x264.DD5.1.Rus.Eng-E76
Encoded date : UTC 2012-05-24 08:09:10
Writing application : mkvmerge v5.2.1 (A Far Off Place) built on Jan 2 2012 23:21:10
Writing library : libebml v1.2.3 + libmatroska v1.3.0
Video
ID : 1
Format : AVC
Format/Info : Advanced Video Codec
Format profile : [email protected]
Format settings, CABAC : Yes
Format settings, ReFrames : 12 frames
Codec ID : V_MPEG4/ISO/AVC
Duration : 1h 28mn
Bit rate : 3 772 Kbps
Width : 1 200 pixels
Height : 510 pixels
Display aspect ratio : 2.35:1
Frame rate : 23.976 fps
Color space : YUV
Chroma subsampling : 4:2:0
Bit depth : 8 bits
Scan type : Progressive
Bits/(Pixel*Frame) : 0.257
Stream size : 2.34 GiB (79%)
Title : Encode by Enclave76
Writing library : x264 core 124 r2197kMod 69a0443
Encoding settings : cabac=1 / ref=12 / deblock=1:-3:-3 / analyse=0x3:0x113 / me=umh / subme=11 / psy=1 / fade_compensate=0.00 / psy_rd=1.00:0.00 / mixed_ref=1 / me_range=64 / chroma_me=1 / trellis=2 / 8x8dct=1 / cqm=0 / deadzone=21,11 / fast_pskip=1 / chroma_qp_offset=-2 / threads=6 / sliced_threads=0 / nr=0 / decimate=1 / interlaced=0 / bluray_compat=0 / constrained_intra=0 / bframes=16 / b_pyramid=2 / b_adapt=2 / b_bias=0 / direct=1 / weightb=1 / open_gop=0 / weightp=2 / keyint=240 / keyint_min=23 / scenecut=40 / intra_refresh=0 / rc_lookahead=40 / rc=crf / mbtree=0 / crf=18.0000 / qcomp=0.60 / qpmin=0 / qpmax=69 / qpstep=4 / vbv_maxrate=50000 / vbv_bufsize=62500 / crf_max=0.0 / nal_hrd=none / ip_ratio=1.40 / pb_ratio=1.30 / aq=3:1.00 / zones=121670,127583,q=35
Language : English
Matrix coefficients : BT.709-5, BT.1361, IEC 61966-2-4 709, SMPTE RP177
Audio #1
ID : 2
Format : AC-3
Format/Info : Audio Coding 3
Mode extension : CM (complete main)
Codec ID : A_AC3
Duration : 1h 28mn
Bit rate mode : Constant
Bit rate : 448 Kbps
Channel(s) : 6 channels
Channel positions : Front: L C R, Side: L R, LFE
Sampling rate : 48.0 KHz
Bit depth : 16 bits
Compression mode : Lossy
Stream size : 284 MiB (9%)
Title : Dub
Language : Russian
Audio #2
ID : 3
Format : AC-3
Format/Info : Audio Coding 3
Mode extension : CM (complete main)
Codec ID : A_AC3
Duration : 1h 28mn
Bit rate mode : Constant
Bit rate : 448 Kbps
Channel(s) : 6 channels
Channel positi
17db1f2d1f854708dab75f3bc7ecadcb9c6fe936Сыщик / Sleuth (Кеннет Брэна, Триллер, драма, детектив, 2007) [BDRip-AVC, Профессиональный (полное дублирование), Оригинал (английский), Авторский (одноголосый, закадровый), Sub] Сыщик / Sleuth (Кеннет Брэна, Триллер, драма, детектив, 2007) [BDRip-AVC, Профессиональный (полное дублирование), Оригинал (английский), Авторский (одноголосый, закадровый), Sub] " />

Аплоадер: Админ, дата: 12-11-2013, 19:24, торрент скачан: 359 раз

Понравилась раздача? Посмотрите эти:
  • Сыщик / Sleuth (Кеннет Брэна, Триллер, драма, детектив, 2007) [HDRip, Профе ...
  • Иллюзия обмана / Now You See Me [Theatrical Cut] (Луи Летерье / Louis Leter ...
  • Соучастник / Collateral (Майкл Манн, Триллер, драма, криминал, 2004) [BDRip ...
  • Железная леди / The Iron Lady (Филлида Ллойд, драма, биография, история, 20 ...
  • Жизнь Пи / Life Of Pi (Энг Ли, Драма, приключения, 2012) [BDRip 720p, Профе ...
  • Водитель / The Driver (Уолтер Хилл, Боевик, триллер, драма, криминал, 1978) ...
  • Сыщик / Sleuth (Кеннет Брэна, триллер, драма, детектив, комедия, 2007) [BD ...
  • Сыщик / Sleuth (Кеннет Брэна, триллер, драма, детектив, 2007) [BDRip-AVC, П ...
  • Цельнометаллическая оболочка / Full Metal Jacket (Стэнли Кубрик, драма, вое ...
  • Аноним / Anonymous (Роланд Эммерих, триллер, драма, 2011) [BDRip-AVC, Профе ...
  • Мартовские иды / The Ides of March (Джордж Клуни / George Clooney, драма, 2 ...
  • Обряд / The Rite (Микаэль Хафстрем, ужасы, триллер, драма, 2011) [BDRip-AVC ...
  • Боевой конь / War Horse (Стивен Спилберг, драма, военный, 2011) [BDRip-AVC, ...
  • На грани / Man on a Ledge (Асгер Лет, триллер, криминал, 2012) [BDRip-AVC, ...
  • Код доступа «Кейптаун» / Safe House (Дэниэл Эспиноза, боевик, триллер, крим ...
  • Охота за "Красным Октябрём" / The Hunt for "Red October" (Джон МакТирнан, б ...
  • Любимые / The Loved Ones (Шон Бирн, ужасы, триллер, драма, 2009) [BDRip-AVC ...
  • Город воров [Театральная версия] / The Town [Theatrical cut] (Бен Аффлек, т ...
  • Китайский квартал / Chinatown (Роман Полански, Триллер, драма, криминал, де ...
  • Сыщик / Sleuth (Кеннет Брэна, триллер, драма, детектив, 2007) [BDRip, Профе ...
  • Информация
    Посетители, находящиеся в группе Гости, не могут оставлять комментарии к данной публикации.