вход на сайт

Имя пользователя :
Пароль :

Восстановление пароля Регистрация
Семь психопатов / Seven Psychopaths (Мартин МакДона, Триллер, комедия, криминал, 2012) [BDRip-AVC, Профессиональный (полное дублирование), Оригинал (английский), Sub]
Рейтинг:
(голосов: 1)



[img]{THEME}/images/logopost.png[/img]



Семь психопатов / Seven Psychopaths
«They Wont Take Any Shih Tzu»

Год выпуска: 2012
Страна: Великобритания
Производство: Blueprint Pictures, British Film Institute (BFI)
Жанр: Триллер, комедия, криминал

Режиссёр: Мартин МакДона
В ролях: Колин Фаррелл, Сэм Рокуэлл, Кристофер Уокен, Вуди Харрельсон, Том Уэйтс, Эбби Корниш, Ольга Куриленко, Желько Иванек, Майкл Питт, Майкл Стулбарг

Перевод: Профессиональный (полное дублирование), Оригинал (английский)
Субтитры: русские

Описание: Непутевый писатель потерял вдохновение и никак не может справиться с новым сценарием. Волей случая он оказывается втянутым в похищение собаки, затеянное его эксцентричными дружками. Выясняется, что украденное животное — любимый пёс главного местного гангстера, которому ничего не стоит в два счета вычислить и уничтожить оболтусов.



Качество: BDRip-AVC
Продолжительность: 01:50:23 час.

Формат: MKV
Видео кодек: AVC
Аудио кодек: AС3
Видео: 1024x426 (2,40:1), 23,976 fps, Advanced Video Codec 2 004 Кbps, 0.192 bit/pixel
Аудио #1: 48 kHz, AC3 Dolby Digital, 3/2 (L,C,R,l,r) + LFE ch, ~384.00 kbps avg - Rus
Аудио #2: 48 kHz, AC3 Dolby Digital, 3/2 (L,C,R,l,r) + LFE ch, ~384.00 kbps avg - Eng

Дата премьеры (мир): 7 сентября 2012
Дата премьеры (РФ): 18 октября 2012, «Каравелла DDC»

MediaInfo ▼Format : Matroska
File size : 2.18 GiB
Duration : 1h 50mn
Overall bit rate : 2 829 Kbps
Movie name : -=POTROKS=-
Encoded date : UTC 2013-02-02 15:14:02
Writing application : mkvmerge v5.7.0 (The Whirlwind) built on Jul 8 2012 20:08:51
Writing library : libebml v1.2.3 + libmatroska v1.3.0
Video
ID : 1
Format : AVC
Format/Info : Advanced Video Codec
Format profile : [email protected]
Format settings, CABAC : Yes
Format settings, ReFrames : 9 frames
Muxing mode : Container [email protected]
Codec ID : V_MPEG4/ISO/AVC
Duration : 1h 50mn
Bit rate : 2 004 Kbps
Nominal bit rate : 2 061 Kbps
Width : 1 024 pixels
Height : 426 pixels
Display aspect ratio : 2.40:1
Original display aspect ratio : 2.40:1
Frame rate mode : Variable
Frame rate : 23.976 fps
Resolution : 8 bits
Colorimetry : 4:2:0
Scan type : Progressive
Bits/(Pixel*Frame) : 0.192
Stream size : 1.55 GiB (71%)
Title : Seven Psychopaths
Writing library : x264 core 128 r2216M 198a7ea
Encoding settings : cabac=1 / ref=10 / deblock=1:-3:-2 / analyse=0x3:0x133 / me=umh / subme=9 / psy=1 / psy_rd=1.05:0.00 / mixed_ref=1 / me_range=32 / chroma_me=1 / trellis=2 / 8x8dct=1 / cqm=0 / deadzone=21,11 / fast_pskip=0 / chroma_qp_offset=-2 / threads=4 / lookahead_threads=1 / sliced_threads=0 / nr=0 / decimate=1 / interlaced=0 / bluray_compat=0 / constrained_intra=0 / bframes=11 / b_pyramid=1 / b_adapt=2 / b_bias=0 / direct=3 / weightb=1 / open_gop=0 / weightp=2 / keyint=240 / keyint_min=23 / scenecut=40 / intra_refresh=0 / rc_lookahead=200 / rc=2pass / mbtree=1 / bitrate=2061 / ratetol=1.0 / qcomp=0.70 / qpmin=0 / qpmax=65 / qpstep=4 / cplxblur=20.0 / qblur=0.5 / vbv_maxrate=20000 / vbv_bufsize=25000 / nal_hrd=none / ip_ratio=1.35 / aq=1:0.85
Audio #1
ID : 2
Format : AC-3
Format/Info : Audio Coding 3
Format_Settings_ModeExtension : CM (complete main)
Codec ID : A_AC3
Duration : 1h 50mn
Bit rate mode : Constant
Bit rate : 384 Kbps
Channel(s) : 6 channels
Channel positions : Front: L C R, Side: L R, LFE
Sampling rate : 48.0 KHz
Stream size : 303 MiB (14%)
Title : [email protected] RUS | DD 5.1 @ 384 kbps
Language : Russian
Audio #2
ID : 3
Format : AC-3
Format/Info : Audio Coding 3
Format_Settings_ModeExtension : CM (complete main)
Codec ID : A_AC3
Duration : 1h 50mn
Bit rate mode : Constant
Bit rate : 384 Kbps
Channel(s) : 6 channels
Channel positions : Front: L C R, Side: L R, LFE
Sampling rate : 48.0 KHz
Video delay : 27ms
Stream size : 303 MiB (14%)
Title : Original | DD 5.1 @ 384 kbps
Text #1
ID : 4
Format : UTF-8
Codec ID : S_TEXT/UTF8
Codec ID/Info : UTF-8 Plain Text
Language : Russian
Text #2
ID : 5
Fo
266603d79c09c118eb7967ac41be35d32c63a988Семь психопатов / Seven Psychopaths (Мартин МакДона, Триллер, комедия, криминал, 2012) [BDRip-AVC, Профессиональный (полное дублирование), Оригинал (английский), Sub] Семь психопатов / Seven Psychopaths (Мартин МакДона, Триллер, комедия, криминал, 2012) [BDRip-AVC, Профессиональный (полное дублирование), Оригинал (английский), Sub] " />

Аплоадер: Админ, дата: 7-12-2013, 20:16, торрент скачан: 359 раз

Понравилась раздача? Посмотрите эти:
  • Соучастник / Collateral (Майкл Манн, Триллер, драма, криминал, 2004) [BDRip ...
  • Семь психопатов / Seven Psychopaths (Мартин МакДона, комедия, криминал, 201 ...
  • Семь психопатов / Seven Psychopaths (Мартин МакДона, Комедия, криминал, 201 ...
  • Семь психопатов / Seven Psychopaths (Мартин МакДона, Комедия, криминал, 201 ...
  • Семь психопатов / Seven Psychopaths (Мартин МакДона, комедия, криминал, 201 ...
  • Семь психопатов / Seven Psychopaths (Мартин МакДона, комедия, криминал, 201 ...
  • Семь психопатов / Seven Psychopaths (Мартин МакДона, Комедия, криминал, 201 ...
  • Семь психопатов / Seven Psychopaths (Мартин МакДона, комедия, криминал, 201 ...
  • Семь психопатов / Seven Psychopaths (Мартин МакДона, Комедия, криминал, 201 ...
  • Семь Психопатов / Seven Psychopaths (Мартин МакДонах, комедия, криминал, 20 ...
  • Сайлент Хилл 2 / Silent Hill: Revelation 3D (Майкл Дж. Бассетт, ужасы, трил ...
  • Семь психопатов / Seven Psychopaths (Мартин МакДона, Комедия, криминал, 201 ...
  • Семь психопатов / Seven Psychopaths (Мартин МакДона, Комедия, криминал, 201 ...
  • Семь психопатов / Seven Psychopaths (Мартин МакДона, комедия, криминал, 201 ...
  • Семь психопатов / Seven Psychopaths (Мартин МакДона, комедия, криминал, 201 ...
  • Семь психопатов / Seven Psychopaths (Мартин МакДона, комедия, криминал, 201 ...
  • Семь психопатов / Seven Psychopaths (Мартин МакДона, Комедия, криминал, 201 ...
  • Хранитель времени / Hugo (Мартин Скорсезе, Драма, 2011) [BDRip-AVC, Професс ...
  • Патруль / End of Watch (Дэвид Эйр, Триллер, драма, криминал, 2012) [BDRip-A ...
  • Иcчeзнoвeниe Элиc Крид / Thе Disаppеаrаnсе оf Аliсе Сrееd (Дж. Блэйкcoн , Т ...
  • Коллекционер 2 / The Collection (Маркус Данстэн, ужасы, боевик, триллер , 2 ...
  • Семь психопатов / Seven Psychopaths (Мартин МакДона, комедия, криминал, 201 ...
  • Семь психопатов / Seven Psychopaths (Мартин МакДона, комедия, криминал, 201 ...
  • Семь психопатов / Seven Psychopaths (Мартин МакДона, комедия, криминал, 201 ...
  • [Трейлер] Семь психопатов / Seven Psychopaths (Мартин МакДона, комедия) [HD ...
  • Информация
    Посетители, находящиеся в группе Гости, не могут оставлять комментарии к данной публикации.