вход на сайт

Имя пользователя :
Пароль :

Восстановление пароля Регистрация
Странный Томас / Odd Thomas (Стивен Соммерс, триллер, детектив, 2013) [BDRip-AVC, Профессиональный (многоголосый закадровый), Оригинал (Английский), SUB]
Рейтинг:
(голосов: 1)



[img]{THEME}/images/logopost.png[/img]



Странный Томас / Odd Thomas

Год: 2013
Страна: США
Производство:Fusion Films (II), Future Films
Жанр: триллер, детектив, фэнтези, боевик

Режиссёр: Стивен Соммерс
В ролях: Антон Ельчин, Эшли Соммерс, Леонор Варела, Мэттью Пейдж, Кэйси Мессер, Barney Lanning, Нико Торторелла, Уиллем Дефо, Кайл МакКивер, Carmen Corley

Перевод: Профессиональный (многоголосый закадровый), Оригинал (Английский)
Субтитры: Русские, Английские (отключаемые)

Описание: Главный герой наделен даром (или проклятием) видеть мертвецов. Каждый их визит становится началом очередной охоты на убийцу — призраки ведут Томаса на помощь тем, кому еще рано расставаться с жизнью. О способности героя знают только самые близкие друзья и любимая девушка. С их помощью ему предстоит отвести большую беду от маленького городка в центре пустыни Мохаве.

Экранизация первой книги романа Дина Кунца "Странный Томас".



Качество: BDRip-AVC| Сэмпл
Продолжительность: 01:32:41

Формат: MKV
Видео кодек: H.264
Аудио кодек: AC3 Dolby Digital
Видео: 1024x424 (2,40:1), 24 fps, 2273 kbps, 0.218 bit/pixel
Аудио#1: 48 kHz, AC3 Dolby Digital, 6 ch, ~384.00 kbps (Русский)
Аудио#2: 48 kHz, AC3 Dolby Digital, 6 ch, ~384.00 kbps (Английский)

"Media Info / x264" ▼Общее
Уникальный идентификатор : 177014006814630463903662407354933584485 (0x852BA85A70FFD7A09514AF194A882265)
Полное имя : D:Odd Thomas.2013.BDRip-AVC.mkv
Формат : Matroska
Версия формата : Version 4 / Version 2
Размер файла : 2,05 Гбайт
Продолжительность : 1 ч. 36 м.
Общий поток : 3043 Кбит/сек
Название фильма : Странный Томас / Odd Thomas (2013) BDRip-AVC rip by Rulya74
Дата кодирования : UTC 2013-12-03 22:07:03
Программа кодирования : mkvmerge v6.5.0 (Isnt she lovely) built on Oct 20 2013 12:50:05
Библиотека кодирования : libebml v1.3.0 + libmatroska v1.4.1

Видео
Идентификатор : 1
Формат : AVC
Формат/Информация : Advanced Video Codec
Профиль формата : [email protected]
Параметр CABAC формата : Да
Параметр ReFrames формата : 9 кадров
Идентификатор кодека : V_MPEG4/ISO/AVC
Продолжительность : 1 ч. 36 м.
Битрейт : 2273 Кбит/сек
Ширина : 1024 пикселя
Высота : 424 пикселя
Соотношение сторон : 2,40:1
Режим частоты кадров : Постоянный
Частота кадров : 24,000 кадра/сек
Цветовое пространство : YUV
Субдискретизация насыщенности : 4:2:0
Битовая глубина : 8 бит
Тип развёртки : Прогрессивная
Бит/(Пиксели*Кадры) : 0.218
Размер потока : 1,49 Гбайт (73%)
Библиотека кодирования : x264 core 130 r2273 b3065e6
Настройки программы : cabac=1 / ref=9 / deblock=1:-1:-1 / analyse=0x1:0 / me=umh / subme=11 / psy=1 / psy_rd=1.36:0.72 / mixed_ref=1 / me_range=48 / chroma_me=1 / trellis=2 / 8x8dct=0 / cqm=0 / deadzone=21,11 / fast_pskip=0 / chroma_qp_offset=-4 / threads=4 / lookahead_threads=1 / sliced_threads=0 / nr=0 / decimate=1 / interlaced=0 / bluray_compat=0 / constrained_intra=0 / bframes=6 / b_pyramid=2 / b_adapt=2 / b_bias=0 / direct=3 / weightb=1 / open_gop=0 / weightp=2 / keyint=250 / keyint_min=23 / scenecut=40 / intra_refresh=0 / rc_lookahead=50 / rc=2pass / mbtree=1 / bitrate=2273 / ratetol=1.0 / qcomp=0.60 / qpmin=10 / qpmax=69 / qpstep=4 / cplxblur=20.0 / qblur=0.5 / ip_ratio=1.40 / aq=1:1.00
Default : Да
Forced : Нет

Аудио #1
Идентификатор : 2
Формат : AC-3
Формат/Информация : Audio Coding 3
Расширение режима : CM (complete main)
Параметр Endianness формата : Big
Идентификатор кодека : A_AC3
Продолжительность : 1 ч. 36 м.
Вид битрейта : Постоянный
Битрейт : 384 Кбит/сек
Каналы : 6 каналов
Расположение каналов : Front: L C R, Side: L R, LFE
Частота : 48,0 КГц
Битовая глубина : 16 бит
Метод сжатия : С потерями
Размер потока : 265 Мбайт (13%)
Заголовок : Профессиональный (многоголосый закадровый) [Товарищество 110/17]
Язык : Russian
Default : Да
Forced : Нет

Аудио #2
Идентификатор : 3
Формат : AC-3
Формат/Информация : Audio Coding 3
Расширение р
bc330b1a7d6d1cb4b131506a68e2fa5d26a1f795Странный Томас / Odd Thomas (Стивен Соммерс, триллер, детектив, 2013) [BDRip-AVC, Профессиональный (многоголосый закадровый), Оригинал (Английский), SUB] Странный Томас / Odd Thomas (Стивен Соммерс, триллер, детектив, 2013) [BDRip-AVC, Профессиональный (многоголосый закадровый), Оригинал (Английский), SUB] " />

Аплоадер: Админ, дата: 3-12-2013, 15:12, торрент скачан: 359 раз

Понравилась раздача? Посмотрите эти:
  • Погнали! / Getaway (Кортни Соломон, боевик, криминал, 2013) [BDRip 1080p, П ...
  • Странный Томас / Odd Thomas (Стивен Соммерс, Триллер, детектив, фэнтези, бо ...
  • Погнали! / Getaway (Кортни Соломон, боевик, криминал, 2013) [BDRip-AVC, Про ...
  • 11.6 / 11.6 (Филипп Годо, Драма, триллер, криминал, 2013) [BDRip-AVC, Профе ...
  • Мальчишник: Часть III / The Hangover Part III (Тодд Филлипс, комедия, 2013) ...
  • Иллюзия обмана / Now You See Me [Extended Cut] (Луи Летерье, триллер, крими ...
  • Странный Томас / Odd Thomas ( Стивен Соммерс, триллер, детектив, фэнтези, б ...
  • Заклятие / The Conjuring (Джеймс Ван, ужасы, триллер, 2013) [BDRip 720р, Ду ...
  • Заклятие / The Conjuring (Джеймс Ван, ужасы, триллер, 2013) [BDRip 1080p, Д ...
  • Война миров Z / World War Z [Theatrical Cut] (Марк Форстер, ужасы, фантасти ...
  • Странный Томас / Odd Thomas (Стивен Соммерс, триллер, детектив, 2013) [DVDR ...
  • Филадельфия / Philadelphia (Джонатан Демме, Драма, 1993) [BDRip-AVC, Профес ...
  • Кровь / Blood (Ник Мерфи, Триллер, детектив, 2012) [BDRip-AVC, Профессионал ...
  • Кровь / Blood (Ник Мерфи, Триллер, детектив, 2012) [BDRip-AVC, Профессионал ...
  • Летучий отряд Скотланд-Ярда / The Sweeney (Ник Лав, Боевик, драма, криминал ...
  • Залив / The Bay (Барри Левинсон, Ужасы, фантастика, триллер, 2012) [BDRip-A ...
  • Порочные игры / Stoker (Пак Чхан Ук, Триллер, драма, детектив, 2013) [BDRip ...
  • Порочные игры / Stoker (Пак Чхан Ук, Триллер, драма, детектив, 2013) [BDRip ...
  • Странный Томас / Odd Thomas (Стивен Соммерс, триллер, детектив, 2013) [DVDR ...
  • Странный Томас / Odd Thomas (Стивен Соммерс, триллер, детектив, 2013) [DVDR ...
  • Голливудский мусор / Garbage (Филипп Волкен, драма, комедия, 2013) [HDTVRip ...
  • Рикошет / Ricochet (Ник Гомез, драма, детектив, 2011) [BDRip-AVC, Профессио ...
  • Ворон / The Raven (Джеймс МакТиг, Триллер, детектив, 2012) [BDRip 1080p, Ду ...
  • Даю год / I Give It a Year (Дэн Мазер, мелодрама, комедия, 2012) [BDRip-AVC ...
  • Суррогат / The Sessions (Бен Луин, Драма, 2012) [BDRip-AVC, Профессиональны ...
  • Информация
    Посетители, находящиеся в группе Гости, не могут оставлять комментарии к данной публикации.