вход на сайт

Имя пользователя :
Пароль :

Восстановление пароля Регистрация
Андроид / Android (App) (Бобо Боерманс, Tриллер, 2013) [BDRip-AVC, Профессиональный (полное дублирование)]
Рейтинг:
(голосов: 1)



[img]{THEME}/images/logopost.png[/img]



Андроид / Android (App)
Год выпуска: 2013
Страна: Нидерланды
Производство: 2CFilm
Жанр: Tриллер

Режиссёр: Дин Паризо
В ролях: Ханна Хекстра, Роберт де Хуг, Исис Каболе Маттис ван де Санде Бак*censored*зен, Марк ван Эувен, Лиза Сипс, Ерун Шпиценбергер, Алекс Хендрикс, Патрик Мартенс, Гиги Равелли и др.

Перевод: Профессиональный (полное дублирование)
Субтитры: Нет
Описание: Симпатичная студентка Анна просыпается после вечеринки и обнаруживает на своем смартфоне загадочное приложение «Айрис»… Активируя приложение, Анна запускает головокружительную и трагическую череду событий в жизни своих друзей и знакомых. Кто за этим стоит?...



Премьера (мир): 28 марта 2013
Премьера (РФ): 10 октября 2013, «Экспонента»
Качество: BDRip-AVC
Продолжительность: 01:18:43

Формат: MKV
Видео кодек: H.264
Аудио кодек: AC3
Видео: 1024x432 (2.35:1), 24.000 fps, AVC ~2700 kbps avg, 0.254 bit/pixel
Аудио: 48 kHz, AC3 Dolby Digital, 2 ch, ~448.00 kbps
MediaInfo: ▼Общее
Уникальный идентификатор : 226192640698128965612517948676001063440 (0xAA2B1E34BA313716999E8A11091D6210)
Полное имя : C:UsersuserDownloadsAndroid.2013.BDRip.AVC.mkv
Формат : Matroska
Версия формата : Version 4 / Version 2
Размер файла : 1,73 Гбайт
Продолжительность : 1 ч. 18 м.
Общий поток : 3148 Кбит/сек
Название фильма : MediaClub - MINION
Дата кодирования : UTC 2013-12-28 07:00:38
Программа кодирования : mkvmerge v6.6.0 (The Edge Of The In Between) built on Dec 1 2013 17:55:00
Библиотека кодирования : libebml v1.3.0 + libmatroska v1.4.1

Видео
Идентификатор : 1
Формат : AVC
Формат/Информация : Advanced Video Codec
Профиль формата : [email protected]
Параметр CABAC формата : Да
Параметр ReFrames формата : 11 кадров
Идентификатор кодека : V_MPEG4/ISO/AVC
Продолжительность : 1 ч. 18 м.
Битрейт : 2700 Кбит/сек
Ширина : 1024 пикселя
Высота : 432 пикселя
Соотношение сторон : 2,40:1
Режим частоты кадров : Постоянный
Частота кадров : 24,000 кадра/сек
Цветовое пространство : YUV
Субдискретизация насыщенности : 4:2:0
Битовая глубина : 8 бит
Тип развёртки : Прогрессивная
Бит/(Пиксели*Кадры) : 0.254
Размер потока : 1,45 Гбайт (84%)
Библиотека кодирования : x264 core 138 r2358 9e941d1
Настройки программы : cabac=1 / ref=11 / deblock=1:-2:-2 / analyse=0x3:0x133 / me=umh / subme=11 / psy=1 / psy_rd=1.00:0.10 / mixed_ref=1 / me_range=48 / chroma_me=1 / trellis=2 / 8x8dct=1 / cqm=0 / deadzone=21,11 / fast_pskip=0 / chroma_qp_offset=-3 / threads=6 / lookahead_threads=1 / sliced_threads=0 / nr=0 / decimate=0 / interlaced=0 / bluray_compat=0 / constrained_intra=0 / bframes=12 / b_pyramid=2 / b_adapt=2 / b_bias=0 / direct=3 / weightb=1 / open_gop=0 / weightp=2 / keyint=240 / keyint_min=24 / scenecut=40 / intra_refresh=0 / rc_lookahead=40 / rc=2pass / mbtree=1 / bitrate=2700 / ratetol=1.0 / qcomp=0.60 / qpmin=10 / qpmax=51 / qpstep=4 / cplxblur=20.0 / qblur=0.5 / ip_ratio=1.40 / aq=1:1.00
Язык : English
Default : Да
Forced : Нет

Аудио
Идентификатор : 2
Формат : AC-3
Формат/Информация : Audio Coding 3
Расширение режима : CM (complete main)
Параметр Endianness формата : Big
Идентификатор кодека : A_AC3
Продолжительность : 1 ч. 18 м.
Вид битрейта : Постоянный
Битрейт : 448 Кбит/сек
Каналы : 6 каналов
Расположение каналов : Front: L C R, Side: L R, LFE
Частота : 48,0 КГц
Битовая глубина : 16 бит
Метод сжатия : С потерями
Размер потока : 252 Мбайт (14%)
Язык : Russian
Default : Да
Forced : Нет

Меню
00:00:00.000 : en:00:00:00.000
00:00:55.583 : en:00:00:55.583
00:09:00.666 : en:00:09:00.666
00:17:41.166 : en:00:17:41.166
00:29:03.458 : en:00:29:03.458
00:37:22.708 : en:00:37:22.708
00:44:48.875 : en:00:44:48.875
00:54:03.791 : en:00:54:03.791
01:06:10.500 : en:01:06:10.500


ce4b1eb609dcd9e4f513024d11c1ad9fc9cecd2dАндроид / Android (App) (Бобо Боерманс, Tриллер, 2013) [BDRip-AVC, Профессиональный (полное дублирование)] Андроид / Android (App) (Бобо Боерманс, Tриллер, 2013) [BDRip-AVC, Профессиональный (полное дублирование)] " />

Аплоадер: Админ, дата: 28-12-2013, 14:23, торрент скачан: 359 раз

Понравилась раздача? Посмотрите эти:
  • Андроид / App (Бобо Боерманс, триллер, 2013) [DVDRip, Дубляж]
  • Андроид / App (Бобо Боерманс, триллер, 2013) [DVDRip, Дубляж]
  • Андроид / App (Бобо Боерманс, триллер, 2013) [HDRip-AVC, Дубляж]
  • Андроид / App (Бобо Боерманс, триллер, 2013) [640x272] [DVDRip, Профессиона ...
  • Погнали! / Getaway (Кортни Соломон, боевик, криминал, 2013) [BDRip 1080p, П ...
  • 11.6 / 11.6 (Филипп Годо, Драма, триллер, криминал, 2013) [BDRip-AVC, Профе ...
  • Мальчишник: Часть III / The Hangover Part III (Тодд Филлипс, комедия, 2013) ...
  • Заклятие / The Conjuring (Джеймс Ван, ужасы, триллер, 2013) [BDRip 720р, Ду ...
  • Заклятие / The Conjuring (Джеймс Ван, ужасы, триллер, 2013) [BDRip 1080p, Д ...
  • Лавлэйс / Lovelace (Роб Эпштейн, Джеффри Фридман, драма, биография, 2013) [ ...
  • Война миров Z / World War Z [Theatrical Cut] (Марк Форстер, ужасы, фантасти ...
  • Исходный код / Source Code (Дункан Джонс, фантастика, боевик, триллер, драм ...
  • Филадельфия / Philadelphia (Джонатан Демме, Драма, 1993) [BDRip-AVC, Профес ...
  • Поймай толстуху, если сможешь / Identity Thief [Theatrical Cut] (Сет Гордон ...
  • Поймай толстуху, если сможешь [Театральная версия] / Identity Thief [Theatr ...
  • Больше, чем любовь / A Lot Like Love (Найджел Коул, Драма, мелодрама, комед ...
  • Рикошет / Ricochet (Ник Гомез, драма, детектив, 2011) [BDRip-AVC, Профессио ...
  • Даю год / I Give It a Year (Дэн Мазер, мелодрама, комедия, 2012) [BDRip-AVC ...
  • Паркер / Parker (Тейлор Хэкфорд, Боевик, триллер, криминал, 2013) [BDRip-AV ...
  • Мрачные небеса / Dark Skies (Скотт Чарльз Стюарт, Ужасы, фантастика, трилле ...
  • 21 и больше / 21 & Over (Джон Лукас, Скотт Мур, Комедия, 2013) [BDRip-AVC, ...
  • Толстяк на ринге / Here Comes the Boom (Фрэнк Корачи, Боевик, комедия, 2012 ...
  • Суррогат / The Sessions (Бен Луин, Драма, 2012) [BDRip-AVC, Профессиональны ...
  • Чемпионат Англии 2012-2013 / 25-й тур / Обзор / Суббота / BBC Sport [2013 г ...
  • Сейчас самое время / Now Is Good (Ол Паркер, Мелодрама, 2012) [BDRip-AVC, П ...
  • Информация
    Посетители, находящиеся в группе Гости, не могут оставлять комментарии к данной публикации.