вход на сайт

Имя пользователя :
Пароль :

Восстановление пароля Регистрация
Ничего, кроме правды / Nothing But the Truth (Род Лури, триллер, драма, 2008) [HDRip, Профессиональный (двухголосый, закадровый)]
Рейтинг:
(голосов: 1)



[img]{THEME}/images/logopost.png[/img]



Ничего, кроме правды / Nothing But the Truth

Год выпуска: 2008
Страна: США
Производство: Battleplan Productions, Yari Film Group
Жанр: триллер, драма

Режиссёр: Род Лури
В ролях: Кейт Бекинсейл, Мэтт Диллон, Алан Алда, Вера Фармига,Дэвид Швиммер, Анджела Бассетт, Ной Уайл, Кен Эксмейкер мл., Престон Бэйли, Йохан Бенет

Перевод: Профессиональный (двухголосый, закадровый)
Субтитры: отсутствуют

Описание: Журналистка, рассекретившая в своих статьях агента ЦРУ, под угрозой тюрёмного заключения, отказывается раскрывать источник информации, сообщивший ей имя этого агента.



Качество: HDRip | Сэмпл
Продолжительность: 01:47:02 час.

Формат: AVI
Видео кодек: XviD
Аудио кодек: MP3
Видео:688x288 (2.39:1), 23.976 fps, XviD build 50 ~836 kbps avg, 0.18 bit/pixel
Аудио: 48 kHz, MPEG Layer 3, 2 ch, ~128.00 kbps avg
MediaInfo ▼
General
Complete name : C:Nichego_krome_pravdi_HDRip.avi
Format : AVI
Format/Info : Audio Video Interleave
File size : 746 MiB
Duration : 1h 47mn
Overall bit rate : 974 Kbps
Writing application : VirtualDubMod 1.5.10.2 (build 2540/release)
Writing library : VirtualDubMod build 2540/release
Video #0
ID : 0
Format : MPEG-4 Visual
Format profile : Advanced
Format settings, BVOP : 1
Format settings, QPel : No
Format settings, GMC : No warppoints
Format settings, Matrix : Custom
Codec ID : XVID
Codec ID/Hint : XviD
Duration : 1h 47mn
Bit rate : 837 Kbps
Width : 688 pixels
Height : 288 pixels
Display aspect ratio : 2.40:1
Frame rate : 23.976 fps
Color space : YUV
Chroma subsampling : 4:2:0
Bit depth : 8 bits
Scan type : Progressive
Compression mode : Lossy
Bits/(Pixel*Frame) : 0.176
Stream size : 641 MiB (86%)
Writing library : XviD 1.2.1 (UTC 2008-12-04)
Audio #1
ID : 1
Format : MPEG Audio
Format version : Version 1
Format profile : Layer 3
Codec ID : 55
Codec ID/Hint : MP3
Duration : 1h 47mn
Bit rate mode : Constant
Bit rate : 128 Kbps
Channel(s) : 2 channels
Sampling rate : 48.0 KHz
Compression mode : Lossy
Stream size : 98.0 MiB (13%)
Alignment : Aligned on interleaves
Interleave, duration : 42 ms (1.00 video frame)
Interleave, preload duration : 504 ms
Writing library
883af7a6cc9ed3d9684feb6fbd981ef9b4d6dd8aНичего, кроме правды / Nothing But the Truth (Род Лури, триллер, драма, 2008) [HDRip, Профессиональный (двухголосый, закадровый)] Ничего, кроме правды / Nothing But the Truth (Род Лури, триллер, драма, 2008) [HDRip, Профессиональный (двухголосый, закадровый)] " />

Аплоадер: Админ, дата: 20-11-2012, 13:00, торрент скачан: 359 раз

Понравилась раздача? Посмотрите эти:
  • Ничего, кроме правды / Nothing But the Truth (Род Лури, Триллер, драма, 200 ...
  • Хладнокровная / Cold Blooded (Джейсон Лапейр, Триллер, криминал, 2012) [WEB ...
  • Посылка / The Package (Джесси Джонсон, боевик, 2013) [HDRip, Профессиональн ...
  • Финал / The Final (Джои Стюарт, ужасы, триллер, драма, 2010) [HDRip, Профес ...
  • Ледяной / The Iceman (Ариэль Вромен, триллер, драма, криминал, биография, 2 ...
  • Альбатрос / Albatross (Найал МакКормик, Драма, 2011) [DVDRip, Профессиональ ...
  • Игра смерти / Game of death (Роберт Клауз, Саммо Хунг Кам-Бо, Брюс Ли, боев ...
  • Цель Номер Один / Zero Dark Thirty (Кэтрин Бигелоу, боевик, триллер, драма, ...
  • Невозможное / Lo Imposible (Хуан Антонио Байона, драма, 2012) [HDRip, Профе ...
  • Скуби-Ду! Маска Синего Сокола / Scooby-Doo! Mask Of The Blue Falcon (Оливье ...
  • Псы войны / The Dogs of War (Джон Ирвин, боевик, драма, приключения, военны ...
  • Новые парни турбо / New Kids Turbo (Штефен Хаарс, Боевик, комедия, 2010) [H ...
  • Нежность / Tenderness (Джон Полсон, Триллер, драма, криминал, 2009) [HDRip, ...
  • Остановка 2: Не оглядывайся назад / Rest Stop: Dont Look Back (Шоун Папазян ...
  • Джефф, живущий дома / Jeff, Who Lives at Home (Джей Дюпласс, Марк Дюпласс, ...
  • Следопыт / Tracker (Йен Шарп, боевик, драма, приключения, 2010) [HDRip, Про ...
  • Воздержание / Restraint (Дэвид Денин, триллер, драма, 2008) [DVDRip, Профес ...
  • Воздержание / Restraint (Дэвид Денин, триллер, драма, 2008г.) [DVDRip, Проф ...
  • Ничего, кроме правды / Nothing But the Truth (Род Лури, Триллер, 2008) [DVD ...
  • Романтики / The Romantics (Галт Нидерхоффер, Драма, мелодрама, комедия, 201 ...
  • Полусвет / Half Light (Крэйг Розенберг, Ужасы, триллер, драма, детектив, 20 ...
  • Глушь / Resurrection County (Matt Zettell, ужасы, триллер, 2008) [DVDRip, П ...
  • Искажение / Skew (Сейв Челенз, ужасы, триллер, 2011) [HDRip, Профессиональн ...
  • Встреча со злом / Абсолютное зло / Meeting Evil (Крис Фишер, триллер, драма ...
  • Крузо / Crusoe (Калеб Дешанель, Драма, 1988) [HDTVRip, Профессиональный (дв ...
  • Информация
    Посетители, находящиеся в группе Гости, не могут оставлять комментарии к данной публикации.