вход на сайт

Имя пользователя :
Пароль :

Восстановление пароля Регистрация
Полусвет / Half Light (Крэйг Розенберг, Ужасы, триллер, драма, детектив, 2006) [HDRip, Профессиональный (многоголосый, закадровый)]
Рейтинг:
(голосов: 1)



[img]{THEME}/images/logopost.png[/img]



♥ Полусвет / Half Light ♥


♥ Год выпуска: 2006
♥ Страна: Германия, Великобритания
♥ Выпущено: Lakeshore Entertainment, Samuels Media
♥ Жанр: Ужасы, триллер, драма, детектив

♥ Режиссёр: Крэйг Розенберг
♥ В главных ролях: Деми Мур, Генри Ян Кьюзик, Бинс Эль-Балави, Кейт Изитт, Николас Гливс, Джеймс Космо

♥ Перевод: Профессиональный (многоголосый, закадровый)
♥ Субтитры: Нет

♥ О фильме: Успешная писательница Рэйчел Карлсон никак не может пережить гибель ее 5-летнего сына. Год спустя, чтобы наконец вновь начать писать, Рэйчел перебирается в уединенный коттедж, расположенный в далекой рыбацкой деревушке.
Однако там начинают происходить события, которые наводят ужас на жителей этого тихого местечка и на саму Рэйчел, опасающуюся и за свою жизнь, и за свой рассудок.




♥ Качество: HDRip
♥ Продолжительность: 01:49:52 час
"♥ Media Info" ▼C:UsersÍóðáåêDownloadsHalf Light.avi
General
Complete name : C:UsersÍóðáåêDownloadsHalf Light.avi
Format : AVI
Format/Info : Audio Video Interleave
File size : 745 MiB
Duration : 1h 49mn
Overall bit rate : 948 Kbps
Writing application : VirtualDubMod 1.5.10.2 (build 2540/release)
Writing library : VirtualDubMod build 2540/release
Video #0
ID : 0
Format : MPEG-4 Visual
Format profile : Advanced [email protected]
Format settings, BVOP : Yes
Format settings, QPel : No
Format settings, GMC : No warppoints
Format settings, Matrix : Default (MPEG)
Codec ID : DX50
Codec ID/Hint : DivX 5
Duration : 1h 49mn
Bit rate : 811 Kbps
Width : 672 pixels
Height : 288 pixels
Display aspect ratio : 2.35:1
Frame rate : 24.000 fps
Resolution : 8 bits
Colorimetry : 4:2:0
Scan type : Progressive
Bits/(Pixel*Frame) : 0.175
Stream size : 637 MiB (86%)
Writing library : XviD 1.2.1 (UTC 2008-12-04)
Audio #1
ID : 1
Format : MPEG Audio
Format version : Version 1
Format profile : Layer 3
Mode : Joint stereo
Format_Settings_ModeExtension : MS Stereo
Codec ID : 55
Codec ID/Hint : MP3
Duration : 1h 49mn
Bit rate mode : Constant
Bit rate : 128 Kbps
Channel(s) : 2 channels
Sampling rate : 48.0 KHz
Stream size : 101 MiB (13%)
Alignment : Aligned on interleaves
Interleave, duration : 42 ms (1.00 video frame)
Interleave, preload duration : 504 ms
♥ Формат: AVI
♥ Видео кодек: D
da7417b6cd23ce31f0223a80a93861747da03bd0Полусвет / Half Light (Крэйг Розенберг, Ужасы, триллер, драма, детектив, 2006) [HDRip, Профессиональный (многоголосый, закадровый)] Полусвет / Half Light (Крэйг Розенберг, Ужасы, триллер, драма, детектив, 2006) [HDRip, Профессиональный (многоголосый, закадровый)] " />

Аплоадер: Админ, дата: 26-06-2012, 00:12, торрент скачан: 359 раз

Понравилась раздача? Посмотрите эти:
  • Финал / The Final (Джои Стюарт, ужасы, триллер, драма, 2010) [HDRip, Профес ...
  • Полусвет / Half Light (Крэйг Розенберг, ужасы, триллер, драма, детектив, 20 ...
  • Вторжение динозавра / Gwoemul (Пон Чжун Хо, Ужасы, Фантастика, Триллер, Дра ...
  • Ночь тамплиера / Night of the Templar (Пол Сэмпсон, Ужасы, фантастика, боев ...
  • Последний вампир / Blood: The Last Vampire (Крис Наон, Ужасы, Фэнтези, Боев ...
  • Перелом / Fracture (Грегори Хоблит, Триллер, Драма, Криминал, Детектив, 200 ...
  • 13 заданий / 13 game sayawng (Чукайт Саквееракул, Ужасы, Триллер, Драма, Ко ...
  • Заноза / Splinter (Тоби Уилкинс, Ужасы, Триллер, 2008) [HDRip, Профессионал ...
  • Остановка / Rest Stop: Dead Ahead (Джон Шибан, ужасы, триллер, 2006) [HDRip ...
  • Добро пожаловать в Лэйквью! / Lakeview Terrace (Нил ЛаБут, Триллер, драма, ...
  • Жизнь за гранью / After.Life (Агнешка Войтович-Восло, триллер, драма, детек ...
  • Жизнь за гранью / After.Life (Агнешка Войтович-Восло, триллер, драма, детек ...
  • Задание / The Task (Алекс Оруэлл, Ужасы, 2010) [HDRip, Профессиональный (мн ...
  • Водопад Ангела / Seraphim Falls (Дэвид Фон Энкен, боевик, триллер, драма, в ...
  • Военные игры / War Games: At the End of the Day(Козимо Алема, Триллер, Ужас ...
  • Романтики / The Romantics (Галт Нидерхоффер, Драма, мелодрама, комедия, 201 ...
  • Человек-мотылек / Mothman (Шелдон Уилсон, Ужасы, Фантастика,Триллер, 2010) ...
  • Замёрзший мир / 2012: Ice Age (Трэвис Форт, фантастика, боевик, 2011) [HDRi ...
  • Полусвет / Half Light (Крэйг Розенберг, Триллер, Ужасы, Драма, Детектив, 20 ...
  • Глушь / Resurrection County (Matt Zettell, ужасы, триллер, 2008) [DVDRip, П ...
  • Искажение / Skew (Сейв Челенз, ужасы, триллер, 2011) [HDRip, Профессиональн ...
  • Татуировщик / The Tattooist (Питер Бюргер, ужасы, триллер, 2007) [HDRip, Пр ...
  • Встреча со злом / Абсолютное зло / Meeting Evil (Крис Фишер, триллер, драма ...
  • Ничего, кроме правды / Nothing But the Truth (Род Лури, триллер, драма, 200 ...
  • Убийство на удачу / Murder on Spec (Харви Кан, Драма, Криминал, Детектив, 2 ...
  • Информация
    Посетители, находящиеся в группе Гости, не могут оставлять комментарии к данной публикации.