вход на сайт

Имя пользователя :
Пароль :

Восстановление пароля Регистрация
Похищение / Rapt / Lösegeld (Люка Бельво, триллер, 2009) [HDRip, профессиональный (двухголосый закадровый) + Оригинал]
Рейтинг:
(голосов: 1)



[img]{THEME}/images/logopost.png[/img]



Похищение / Rapt / Lösegeld
●Год выпуска: 2009
●Страна: Франция , Бельгия
●Производство: Agat Films & Cie et Entre Chien & Loup
●Жанр: триллер, детектив, драма
●Режиссёр: Люка Бельво
●В ролях: Иван Атталь, Энн Консиньи, Андре Маркон, Франсуаз Фабиан, Алекс Дека, Мишель Войта, Жерар Мейлан, Максим Лефрансуа, Кристоф Курочкин
●Перевод: профессиональный (двухголосый закадровый) + Оригинал
●Озвучка: студия Elrom
●Субтитры: нет
●Описание: Богатого предпринимателя похищают и пока он томится в заключении, бандиты требует 50 миллионов евро за его жизнь.Президент компании похищен преступной группировкой с целью выкупа. В это же время семья, компания похищенного и правоохранительные органы никак не могут договориться как вести расследование и гнут свою линию.
●IMDB: 6.80 (750)
●КиноПоиск: 6.838 (37)

●Качество: HDRip
●Продолжительность: 02:05:33 час.
●Mediainfo ▼TextGeneral
Format : AVI
Format/Info : Audio Video Interleave
File size : 1.36 GiB
Duration : 2h 0mn
Overall bit rate : 1 621 Kbps
Movie name : Poxischenie.2009
Original source form/Distributed by : Rapt.Porwanie.2009.PL.480p.BDRip.XviD.avi
Genre : Drama, Thriller, Detective
Copyright : 25KADR
Comment : DVO (Elrom studio)

Video #0
ID : 0
Format : MPEG-4 Visual
Format profile : [email protected]
Format settings, BVOP : Yes
Format settings, QPel : No
Format settings, GMC : No warppoints
Format settings, Matrix : Default (MPEG)
Codec ID : XVID
Codec ID/Hint : XviD
Duration : 2h 0mn
Bit rate : 1 223 Kbps
Width : 720 pixels
Height : 304 pixels
Display aspect ratio : 2.35:1
Frame rate : 25.000 fps
Original frame rate : 23.976 fps
Resolution : 24 bits
Colorimetry : 4:2:0
Scan type : Progressive
Bits/(Pixel*Frame) : 0.223
Stream size : 1.03 GiB (75%)
Writing library : XviD 58

Audio #1
ID : 1
Format : AC-3
Format/Info : Audio Coding 3
Codec ID : 2000
Duration : 2h 0mn
Bit rate mode : Constant
Bit rate : 192 Kbps
Channel(s) : 2 channels
Channel positions : L R
Sampling rate : 48.0 KHz
Stream size : 165 MiB (12%)
Alignment : Split accross interleaves
Interleave, duration : 40 ms (1.00 video frame)
Interleave, preload duration : 500 ms
Language : 1.

Audio #2
ID : 2
Format : AC-3
Format/Info : Audio Coding 3
Codec ID : 2000
Duration : 2h 0mn
Bit rate mode : Constant
Bit rate : 192 Kbps
Channel(s) : 2 channels
Channel positions : L R
Sampling rate : 48.0 KHz
Stream size : 165 MiB (12%)
Alignment : Split accross interleaves
Interleave, duration : 40 ms (1.00 video frame)
Interleave, preload duration : 500 ms
●Формат: AVI
●Видео кодек: XviD
●Аудио кодек: AC3
●Видео: Xvid 720x304 (2.37:1), 23.976 fps ~1223kbps avg, 0.223 bit/pixel
●Аудио 1: RU | 48 kHz, AC3 D
7439bfe359b1802832c38582bf422a2f3336c62eПохищение / Rapt / Lösegeld (Люка Бельво, триллер, 2009) [HDRip, профессиональный (двухголосый закадровый) + Оригинал] Похищение / Rapt / Lösegeld (Люка Бельво, триллер, 2009) [HDRip, профессиональный (двухголосый закадровый) + Оригинал] " />

Аплоадер: Админ, дата: 18-04-2012, 08:15, торрент скачан: 359 раз

Понравилась раздача? Посмотрите эти:
  • Вирус / Flu (Ким Сон Су, Драма, 2013) [HDTVRip, Любительский (двухголосый з ...
  • Верное дельце / Une pure affaire (Александр Коффре, Боевик, Комедия, Кримин ...
  • Мои герои / Mes heros (Эрик Беснард, комедия, 2012) [HDRip, Профессиональны ...
  • Мужество / Wymyk (Грег Зглински, драма, 2011) [DVDRip, Любительский (одного ...
  • Звук моего голоса / Sound of My Voice (Зал Батманглидж, триллер, драма, 201 ...
  • Слепой поворот / Blind Turn (Роберт Орр, Триллер, драма, детектив, 2012) [W ...
  • 23:59 / 23:59 (Гилберт Чан, Ужасы, 2011) [HDRip, Любительский (одноголосый ...
  • Псы войны / The Dogs of War (Джон Ирвин, боевик, драма, приключения, военны ...
  • Плохая актриса / Bad Actress (Роберт Ли Кинг, комедия, 2011) [DVDRip, Профе ...
  • Супер циклон / Super Cyclone (Лиз Адамс / Liz Adams, боевик, 2012) [HDRip, ...
  • Захват / Carjacked (Джон Бонито, триллер, 2011)[BDRip, Профессиональный (мн ...
  • Формула 1 2011 / Этап 17 из 19 / Гран-При Индии / Гонка / Спорт 1 [30.10.20 ...
  • Tank Feat. T.I. & Kris Stephens / Compliments [2012, RnB,Hip-Hop, HDRip]
  • Неделя в NBA с В.Гомельским / НТВ+ [28.06.2011, SD, XviD, RU, SAT]
  • Хитрая ворона (Галина Баринова, короткометражный мультфильм, 1980) [DVDRip, ...
  • Джентльмен в коричневом / The Man in the Brown Suit (Алан Гринт, детектив, ...
  • Мисс Март / Miss March (Тревор Мур, Комедия, 2009) [HDRip, Профессиональный ...
  • Супершторм в Сиэтле / Seattle Superstorm (Джейсон Бурк, фантастика, боевик ...
  • Инкубус / Inkubus (Гленн Чиано, Ужасы, 2011) [DVDRip, Профессиональный (мно ...
  • Ведьма войны / Rebelle (Ким Нгуйен, Драма, военный, 2012) [DVDRip, Професси ...
  • Информация
    Посетители, находящиеся в группе Гости, не могут оставлять комментарии к данной публикации.