вход на сайт

Имя пользователя :
Пароль :

Восстановление пароля Регистрация
Пять минут рая / Five Minutes of Heaven (Оливер Хиршбигель, триллер, драма, криминал, 2008) [HDRip, авторский (одноголосый закадровый)]
Рейтинг:
(голосов: 1)



[img]{THEME}/images/logopost.png[/img]



Пять минут рая / Five Minutes of Heaven
●Год выпуска: 2008
●Страна: Великобритания , Ирландия
●Производство: Big Fish Films
●Жанр: триллер, драма, криминал
●Режиссёр: Оливер Хиршбигель
●В ролях: Лиам Нисон, Джеймс Несбитт, Марк Дэвисон, Diarmuid Noyes, Ниам Кьюсак, Мэтью МакЭлхинни, Конор МакНил, Пол Гаррет, Герард Джордан, Paula McFetridge, Джерри Доэрти, Люк О`Рейли
●Перевод: авторский (одноголосый закадровый) Ю.Сербин
●Субтитры: нет
●Описание: В 1975 году 17-летний Алистер Литтл, активист Ольстерских Добровольческих Сил, застрелил 19-летнего католика Джима Гриффина в его собственном доме. Свидетелем убийства стал младший брат Джима, Джо.

Тридцать лет спустя, реабилитированный и перевоспитавшийся Алистер вышел из тюрьмы, а Джо Гриффин по-прежнему несет тяжкий груз преступления, свидетелем которого ему пришлось стать. Согласившись стать участниками телевизионной передачи, создатели которой хотят устроить их примирение в прямом эфире, двое мужчин впервые встретятся лицом к лицу не только друг с другом, но и с собственной болью, ненавистью и жаждой мести.
●IMDB: 6.70 (6477)
●КиноПоиск: 6.607 (292)
●Качество: HDRip
●Продолжительность: 01:29:09 час.
●Media Info ▼Text General
Format : AVI
Format/Info : Audio Video Interleave
File size : 1.36 GiB
Duration : 1h 29mn
Overall bit rate : 2 186 Kbps
Movie name : Пять минут рая / Five Minutes of Heaven (2009) HDRip
Director : genadiy
Writing application : VirtualDubMod 1.5.10.2 (build 2542/release)
Writing library : VirtualDubMod build 2542/release
Video #0
ID : 0
Format : MPEG-4 Visual
Format profile : [email protected]
Format settings, BVOP : Yes
Format settings, QPel : No
Format settings, GMC : No warppoints
Format settings, Matrix : Default (MPEG)
Codec ID : XVID
Codec ID/Hint : XviD
Duration : 1h 29mn
Bit rate : 1 792 Kbps
Width : 720 pixels
Height : 384 pixels
Display aspect ratio : 1.875
Frame rate : 24.000 fps
Resolution : 24 bits
Colorimetry : 4:2:0
Scan type : Progressive
Bits/(Pixel*Frame) : 0.270
Stream size : 1.12 GiB (82%)
Writing library : XviD 1.2.1 (UTC 2008-12-04)
Audio #1
ID : 1
Format : AC-3
Format/Info : Audio Coding 3
Codec ID : 2000
Duration : 1h 29mn
Bit rate mode : Constant
Bit rate : 384 Kbps
Channel(s) : 6 channels
Channel positions : Front: L C R, Surround: L R, LFE
Sampling rate : 48.0 KHz
Stream size : 245 MiB (18%)
Alignment : Split accross interleaves
Interleave, duration : 42 ms (1.00 video frame)
Interleave, preload duration : 500 ms
●Формат: AVI
●Видео кодек: XviD
●Аудио кодек: AC3
●Видео: 720x384 (1.88:1), 24 fps, XviD build 50 ~1792 kbps avg, 0.27 bit/pixel
●Аудио: 48 kHz, AC3 Dolby Digital, 3/2 (L,C,R,l,r) + LFE ch, ~384.00 kbps avg





4ffde49e4e71f7621176f741686634c180b6ca75Пять минут рая / Five Minutes of Heaven (Оливер Хиршбигель, триллер, драма, криминал, 2008) [HDRip, авторский (одноголосый закадровый)] Пять минут рая / Five Minutes of Heaven (Оливер Хиршбигель, триллер, драма, криминал, 2008) [HDRip, авторский (одноголосый закадровый)] " />

Аплоадер: Админ, дата: 16-04-2012, 07:34, торрент скачан: 359 раз

Понравилась раздача? Посмотрите эти:
  • Погнали! / Getaway (Кортни Соломон, Боевик, Криминал, 2013) [HDRip, Професс ...
  • Орудие смерти / A-i-deul... (Ли Гю Ман, Триллер, криминал, 2011) [DVDRip, П ...
  • Возвращение героя / The Last Stand (Ким Чжи-ун, Боевик, триллер, криминал, ...
  • Давид и мадам Ансен / David et Madame Hansen (Александр Астье, драма, 2012) ...
  • Мужество / Wymyk (Грег Зглински, драма, 2011) [DVDRip, Любительский (одного ...
  • Неудержимый / Bullet to the Head (Уолтер Хилл, Боевик, триллер, криминал, 2 ...
  • Звук моего голоса / Sound of My Voice (Зал Батманглидж, триллер, драма, 201 ...
  • 23:59 / 23:59 (Гилберт Чан, Ужасы, 2011) [HDRip, Любительский (одноголосый ...
  • Игра смерти / Game of death (Роберт Клауз, Саммо Хунг Кам-Бо, Брюс Ли, боев ...
  • Цель Номер Один / Zero Dark Thirty (Кэтрин Бигелоу, боевик, триллер, драма, ...
  • В хлам / Smashed (Джеймс Понсольдт, Драма, комедия, 2012) [HDRip, Профессио ...
  • Псы войны / The Dogs of War (Джон Ирвин, боевик, драма, приключения, военны ...
  • [EN] Команда: На пути Аллаха / Takiye: Allah yolunda (2010, Бен Вербонг, тр ...
  • Супер циклон / Super Cyclone (Лиз Адамс / Liz Adams, боевик, 2012) [HDRip, ...
  • Захват / Carjacked (Джон Бонито, триллер, 2011)[BDRip, Профессиональный (мн ...
  • Формула 1 2011 / Этап 17 из 19 / Гран-При Индии / Гонка / Спорт 1 [30.10.20 ...
  • Tank Feat. T.I. & Kris Stephens / Compliments [2012, RnB,Hip-Hop, HDRip]
  • Неделя в NBA с В.Гомельским / НТВ+ [28.06.2011, SD, XviD, RU, SAT]
  • Похищение / Rapt / Lösegeld (Люка Бельво, триллер, 2009) [HDRip, профессион ...
  • Военные игры / War Games: At the End of the Day(Козимо Алема, Триллер, Ужас ...
  • Полусвет / Half Light (Крэйг Розенберг, Ужасы, триллер, драма, детектив, 20 ...
  • Попутчик / The Hitcher (Роберт Хармон, боевик, триллер, криминал, 1986) [DV ...
  • Инкубус / Inkubus (Гленн Чиано, Ужасы, 2011) [DVDRip, Профессиональный (мно ...
  • Искажение / Skew (Сейв Челенз, ужасы, триллер, 2011) [HDRip, Профессиональн ...
  • Ничего, кроме правды / Nothing But the Truth (Род Лури, триллер, драма, 200 ...
  • Информация
    Посетители, находящиеся в группе Гости, не могут оставлять комментарии к данной публикации.