вход на сайт

Имя пользователя :
Пароль :

Восстановление пароля Регистрация
Стукачка / Осведомитель / The Whistleblower (Лариса Кондрацки, Триллер, драма, биография, 2010) [HDRip, Профессиональный (многоголосый, закадровый)]
Рейтинг:
(голосов: 1)



[img]{THEME}/images/logopost.png[/img]



• Стукачка / Осведомитель / The Whistleblower •
Год выпуска: 2010
Страна: Германия, Канада
Производство: Samuel Goldwyn Films, Whistleblower (Gen One), Barry Films
Жанр: Триллер, драма, биография
Режиссёр: Лариса Кондрацки
В ролях: Рейчел Вайс, Ванесса Редгрейв, Моника Беллуччи, Дэвид Стрэтэйрн, Николай Ли Каас, Паула Шрамм, Александру Поточан, Уильям Хоуп.

Перевод: Профессиональный (многоголосый, закадровый) [Лицензия]
Субтитры: Отсутствуют
Описание: Кэтрин Болковач — коп из Небраски, по воле жизненных обстоятельств, направляться миротворцем в Боснию, и сталкивается там с системой торговли секс-рабынями. В это время в Боснии царит хаос после проведения военных действий. Расследование приводит Кэтрин в самое сердце подпольной работорговли, в которой погрязли не только властные структуры Боснии, но и сотрудники ООН. В попытке вскрыть истину, Кэтрин находит женщин, которые готовы дать показания об участи секс-рабынь. Теперь только они могут пролить правду на структуры ООН, творившие бесчинства в Боснии.


Ограничение: Рейтинг R - Детям до 17 лет обязательно присутствие родителей
Рейтинг R получают фильмы, в содержании которых обязательно содержится материал, предназначенный только для взрослой аудитории. Родителям рекомендуется хорошо подумать, прежде чем посмотреть такой фильм вместе со своими детьми.
Фильм, получивший рейтинг R, скорее всего содержит сексуальные сцены, эпизоды с употреблением наркотиков, нецензурную брань, фрагменты с насилием и т.д.
Качество: HDRip [источник BDRip 720p]
Формат: AVI
Видео кодек: XviD
Аудио кодек: AC3
Видео: 720x400 (16:9), 23,976 fps, XviD MPEG-4 ~1842 kbps avg, 0.267 bit/pixel
Аудио:
Russian 48 kHz, AC3 Dolby Digital, 3/2 (L,C,R,l,r) + LFE ch, ~384 kbps
English 48 kHz, AC3 Dolby Digital, 3/2 (L,C,R,l,r) + LFE ch, ~384 kbps
"MI" ▼Общее
Полное имя : D:Stukachka.2010.P.HDRip.avi
Формат : AVI
Формат/Информация : Audio Video Interleave
Профиль формата : OpenDML
Размер файла : 2,05 Гбайт
Продолжительность : 1 ч. 51 м.
Общий поток : 2628 Кбит/сек
Название фильма : Stukachka.2010.P.HDRip
Режиссёр : ELEKTRO-Am-NFSMW
Жанр : Action/Crime
Программа кодирования : VirtualDubMod 1.5.4.1 (build 2178/release)
Формат оригинала/Имя : Movie
Видео
Идентификатор : 0
Формат : MPEG-4 Visual
Профиль формата : Advanced [email protected]
Параметр BVOP формата : 2
Параметр QPel формата : Нет
Параметр GMC формата : Без точки перехода
Параметр матрицы формата : Выборочная
Идентификатор кодека : XVID
Идентификатор кодека/Подсказка : XviD
Продолжительность : 1 ч. 51 м.
Битрейт : 1842 Кбит/сек
Ширина : 720 пикселей
Высота : 400 пикселей
Соотношение сторон : 16:9
Частота кадров : 23,976 кадра/сек
Цветовое пространство : YUV
Субдискретизация насыщенности : 4:2:0
Битовая глубина : 8 бит
Тип развёртки : Прогрессивная
Метод сжатия : С потерями
Бит/(Пиксели*Кадры) : 0.267
Размер потока : 1,44 Гбайт (70%)
Библиотека кодирования : XviD 1.2.0.dev47 (UTC 2006-11-01)
Аудио #1
Идентификатор : 1
Формат : AC-3
Формат/Информация : Audio Coding 3
Расширение режима : CM (complete main)
Идентификатор кодека : 2000
Продолжительность : 1 ч. 51 м.
Вид битрейта : Постоянный
Битрейт : 384 Кбит/сек
Каналы : 6 каналов
Расположение каналов : Front: L C R, Side: L R, LFE
Частота : 48,0 КГц
Битовая глубина : 16 бит
Метод сжатия : С потерями
Размер потока : 307 Мбайт (15%)
Выравнивание : Разделение по промежуткам
Продолжительность промежутка : 42 мс. (1,00 видеокадр)
Время предзагрузки промежутка : 500 мс.
Аудио #2
Идентификатор : 2
Формат : AC-3
Формат/Информация : Audio Coding 3
Расширение режима : CM (complete main)
Идентификатор кодека : 2000
Продолжительность : 1 ч. 51 м.
Вид битрейта : Постоянный
Битрейт : 384 Кбит/сек
Каналы : 6 каналов
Расположение каналов : Front: L C R, Side: L R, LFE
Частота : 48,0 КГц
Битовая глубина : 16 бит
Метод сжатия : С потерями
Размер потока : 307 Мбайт (15%)
Выравнивание : Разделение по промежуткам
Продолжительность
a631da7592cdf5c2dcbf91ce480a2b4af48551c5Стукачка / Осведомитель / The Whistleblower (Лариса Кондрацки, Триллер, драма, биография, 2010) [HDRip, Профессиональный (многоголосый, закадровый)] Стукачка / Осведомитель / The Whistleblower (Лариса Кондрацки, Триллер, драма, биография, 2010) [HDRip, Профессиональный (многоголосый, закадровый)] " />

Аплоадер: Админ, дата: 30-03-2012, 00:34, торрент скачан: 359 раз

Понравилась раздача? Посмотрите эти:
  • Бойфренд из будущего / About Time (Ричард Кёртис, Фантастика, драма, комеди ...
  • Одноклассники 2 / Grown Ups 2 (Деннис Дуган, Комедия, 2013) [BDRip, Професс ...
  • Миллион для чайников / The Brass Teapot (Рамаа Мосли, Фэнтези, триллер, ком ...
  • Астрал на улице Арлетт / 388 Arletta Avenue (Рэндолл Коул, Триллер, 2011) [ ...
  • Марсианская одиссея / Stranded (Мария Лидон, Фантастика, драма, 2001) [DVDR ...
  • Вот я какой/ Thats What I Am (Майкл Павоне, Драма, 2011) [HDRip, Профессион ...
  • Глушь / Resurrection County (Матт Зеттел, Ужасы,триллер, 2008) [DVDRip, Про ...
  • Жил-был тигр / Ek Tha Tiger (Кабир Кхан, боевик, триллер , 2012) [ HDRip, ...
  • Стукачка / The Whistleblower (Лариса Кондрацки, триллер, драма, биография, ...
  • Отбой / Taps (Харольд Беккер, Драма, 1981) [DVDRip, Профессиональный (много ...
  • Путешествие на дно моря / Voyage to the Bottom of the Sea (Ирвин Аллен / I ...
  • Кажется, я люблю свою жену / I Think I Love My Wife (Крис Рок, Драма, мелод ...
  • Бог любви / God of Love (Люк Мэзени, Короткометражка, фэнтези, комедия, мел ...
  • Стукачка / The Whistleblower (Лариса Кондрацки , Триллер, Драма, Биография, ...
  • Боец из трущоб / Gutter King (Кейт Алан Моррис / Keith Alan Morris, боевик, ...
  • Сайрус / Cyrus (Джэй Дюпласс, Марк Дюпласс, Комедия, 2010) [DVDRip, Одногол ...
  • Челюсти 3D / Shark Night 3D (Дэвид Р. Эллис, ужасы, триллер, 2011) [HDRip, ...
  • Стукачка / The Whistleblower (Лариса Кондрацки, триллер, драма, биография, ...
  • Стукачка / The Whistleblower (Лариса Кондрацки, триллер, драма, биография, ...
  • Нет мужчин - нет проблем / Without Men (Габриела Тальявини, Комедия, 2011) ...
  • Гениальный папа / Father of Invention (Трент Купер, Драма, комедия, 2010) [ ...
  • Застенок / The Jailhouse (Билли Льюис, Ужасы, Триллер, Детектив, 2009) [DV ...
  • Глаз шторма / The Eye of the Storm (Фред Скеписи, Драма, 2011) [HDRip, Проф ...
  • Музыка внутри / Music Within (Стивен Савалич, Драма, мелодрама, комедия, во ...
  • Сдохни, Джон Такер / John Tucker Must Die (Бетти Томас, мелодрама, комедия, ...
  • Информация
    Посетители, находящиеся в группе Гости, не могут оставлять комментарии к данной публикации.