вход на сайт

Имя пользователя :
Пароль :

Восстановление пароля Регистрация
Повторяющие / Repeaters (режиссёр, фантастика, триллер, драма, 2010) [DVDRip, Профессиональный (многоголосый)]
Рейтинг:
(голосов: 1)



[img]{THEME}/images/logopost.png[/img]



Повторяющие / Repeaters
«Without consequences to our actions. Does morality even exist?»
Год выпуска: 2010
Страна: Канада
Производство: Rampart Films, Raven West Films Ltd, Resonance Film & Video
Жанр: фантастика, триллер, драма

Режиссёр: Карл Бессай
В ролях: Дастин Миллиган, Аманда Крю, Ричард де Клерк, Бенжамин Рэтнер, Тич Грант, Алексия Фаст, Майкл Копса, Хротгар Мэтьюз, Джон Тенч

Перевод: Профессиональный (многоголосый) [Лицензия]
Субтитры: Отсутствуют

Описание: Трое молодых пациентов реабилитационной клиники застряли в ловушке времени. Каждый день они просыпаются в одном и том же чудовищном дне. И каждый день им необходимо его пережить. Можно ли остаться человеком в этом бесконечно повторяющемся лабиринте?



Дата премьеры (мир): 13 сентября 2010
Качество: DVDRip (Исходник: DVD5)
Продолжительность: 01:25:36

Формат: AVI
Видео кодек: XviD
Аудио кодек: MP3
Видео: 640x272 (2.35:1), 25.000 fps, XviD MPEG-4 ~1 080 kbps avg, 0.250 bit/pixel
Аудио: 48 kHz, MPEG Layer 3, 2 ch, ~128.00 kbps avg
MediaInfo ▼TextVideo
ID : 0
Format : MPEG-4 Visual
Format profile : Advanced [email protected]
Format settings, BVOP : 2
Format settings, QPel : No
Format settings, GMC : No warppoints
Format settings, Matrix : Custom
Codec ID : XVID
Codec ID/Hint : XviD
Duration : 1h 25mn
Bit rate : 1 080 Kbps
Width : 640 pixels
Height : 272 pixels
Display aspect ratio : 2.35:1
Frame rate : 25.000 fps
Color space : YUV
Chroma subsampling : 4:2:0
Bit depth : 8 bits
Scan type : Progressive
Compression mode : Lossy
Bits/(Pixel*Frame) : 0.248
Stream size : 661 MiB (89%)
Writing library : XviD 1.2.1 (UTC 2008-12-04)

Audio
ID : 1
Format : MPEG Audio
Format version : Version 1
Format profile : Layer 3
Codec ID : 55
Codec ID/Hint : MP3
Duration : 1h 25mn
Bit rate mode : Constant
Bit rate : 128 Kbps
Channel(s) : 2 channels
Sampling rate : 48.0 KHz
Compression mode : Lossy
Stream size : 78.4 MiB (11%)
Alignment : Aligned on interleaves
Interleave, duration : 40 ms (1.00 video frame)
Interleave, preload duration : 504 ms
Writing library : LAME3.98r
Encoding settings : -m s -V 4 -q 2 -lowpass 17 -b 128





c31ed466a08afa436c9fb33517ae8c4984ba7db0Повторяющие / Repeaters (режиссёр, фантастика, триллер, драма, 2010) [DVDRip, Профессиональный (многоголосый)] Повторяющие / Repeaters (режиссёр, фантастика, триллер, драма, 2010) [DVDRip, Профессиональный (многоголосый)] " />

Аплоадер: Админ, дата: 30-01-2012, 13:06, торрент скачан: 359 раз

Понравилась раздача? Посмотрите эти:
  • Ледяной / The Iceman (Ариэль Вромен, триллер, драма, криминал, биография, 2 ...
  • Колония / The Colony (Джефф Ренфро, фантастика, боевик, триллер, 2013) [DVD ...
  • [EN] Команда: На пути Аллаха / Takiye: Allah yolunda (2010, Бен Вербонг, тр ...
  • Нежность / Tenderness (Джон Полсон, Триллер, драма, криминал, 2009) [HDRip, ...
  • Повторяющие / Repeaters (Карл Бессай, фантастика, боевик, триллер, драма, к ...
  • Мой парень – псих / Silver Linings Playbook (Дэвид О. Расселл, Драма, мелод ...
  • Метеор / Meteor (Роналд Ним, фантастика, боевик, триллер, драма) [HDTVRip, ...
  • Буря в Арктике / Arctic Blast (Брайан Тренчард-Смит, фантастика, триллер, 2 ...
  • Вскрытие инопланетянина/Alien Autopsy (Джонни Кэмпбелл, Комедия, фантастика ...
  • Синдикат смерти / Fleisch (Оливер Шмитц / Oliver Schmitz, Фантастика, трилл ...
  • Повторяющие / Repeaters (Карл Бессай, фантастика, триллер, драма,2010) [DVD ...
  • Повторяющие реальность / Repeaters (Карл Бессай, фантастика, боевик, трилле ...
  • Повторяющие реальность / Repeaters (Карл Бессай, фантастика, триллер, драма ...
  • Романтики / The Romantics (Галт Нидерхоффер, Драма, мелодрама, комедия, 201 ...
  • Замёрзший мир / 2012: Ice Age (Трэвис Форт, фантастика, боевик, 2011) [HDRi ...
  • Мгновение любви / Here (Браден Кинг, Драма, мелодрама, приключения, 2011) [ ...
  • Глушь / Resurrection County (Matt Zettell, ужасы, триллер, 2008) [DVDRip, П ...
  • Искажение / Skew (Сейв Челенз, ужасы, триллер, 2011) [HDRip, Профессиональн ...
  • Робинзон Крузо / Robinson Crusoe (Род Харди, Джордж Миллер, драма, приключе ...
  • Петля времени / Looper (Райан Джонсон, фантастика, боевик, триллер, 2012) [ ...
  • Информация
    Посетители, находящиеся в группе Гости, не могут оставлять комментарии к данной публикации.