вход на сайт

Имя пользователя :
Пароль :

Восстановление пароля Регистрация
45 калибр / Ms .45 (Гари Леннон, триллер, драма, криминал, 2006) [DVDRip, Профессиональный (двухголосый)]
Рейтинг:
(голосов: 1)



[img]{THEME}/images/logopost.png[/img]



45 калибр / Ms .45

Слоган "Любовь под прицелом"

Год выпуска: 2006
Страна: США
Производство: Möbius Entertainment
Жанр: триллер, драма, криминал

Режиссёр: Гари Леннон
В ролях: Милла Йовович, Энгус МакФадьен, Стивен Дорфф, Сара Стрэйндж и другие

Перевод: Профессиональный (двухголосый)
Субтитры: Отсутствуют

Описание
Супружеская пара похожая на Бонни и Клайда замешана в мелких махинациях, происходящих в нью-йоркском районе «Адская кухня» на Манхетанне в середине 1970-х годов. Муж — Эд занимается продажей оружия и наркотиков. Он часто издевается над своей женой, и теперь она, используя свою красоту, совращает друзей Эда совершить убийство супруга.



Доп. информация
Премьеры ▼премьера (мир) 30 ноября 2006
релиз на DVD 29 сентября 2011, «Союз-Видео»
Рейтинг MPAA ▼
Лицам до 17 лет обязательно присутствие взрослого
Mediainfo ▼TextОбщее
Полное имя :F:TorrentTemp45_Kalibr.DVDRip.700Mb.avi
Формат :AVI
Размер :703 MiB
Продолжительность :01:33:18.320
Общий поток :1 054 Kbps
Программа кодирования :VirtualDubMod 1.5.10.2 (build 2542/release)
Библиотека кодирования :VirtualDubMod build 2542/release

Видео
Идентификатор :0
Формат :MPEG-4 Visual
Профиль формата :Advanced [email protected]
Параметр BVOP формата :1
Параметр Qpel формата :No
Параметр GMC формата :0
Параметр Matrix формата :Custom
Идентификатор кодека :XVID
Продолжительность :1h 33mn 18s 320ms
Битрейт :932 Kbps
Ширина :560 pixels
Высота :416 pixels
Соотношение сторон :1.346
Частота кадров :25.000 fps
Глубина цвета :8 bits
Подвыборка цветности :4:2:0
Цветовое пространство :YUV
Тип развертки :Progressive
Бит/(Пиксели*Кадры) :0.160
Размер потока :622 MiB (88%)
Библиотека кодирования :XviD0047

Аудио #1
Идентификатор :1
Формат :MPEG Audio
Идентификатор кодека :55
Продолжительность :01:33:18.320
Вид битрейта :Constant
Битрейт :112 Kbps
Канал(ы) :2 channels
Частота :44.1 KHz
Метод сжатия :Lossy
Размер потока :74.7 MiB (11%)
Язык &nbs
4a5a9b82884e80c9e14d2b18e8764bc196aedd7545 калибр / Ms .45 (Гари Леннон, триллер, драма, криминал, 2006) [DVDRip, Профессиональный (двухголосый)] 45 калибр / Ms .45 (Гари Леннон, триллер, драма, криминал, 2006) [DVDRip, Профессиональный (двухголосый)] " />

Аплоадер: Админ, дата: 10-01-2012, 18:46, торрент скачан: 359 раз

Понравилась раздача? Посмотрите эти:
  • Гарри-карманник / Harry in Your Pocket (Брюс Геллер, драма, комедия, кримин ...
  • Королевская шлюха / La putain du roi (Аксель Корти, драма, мелодрама, прикл ...
  • Однажды на матрасе / Once Upon a Mattress (Кэтлин Маршалл, мюзикл, мелодрам ...
  • Совершенный мир / A Perfect World (Клинт Иствуд, триллер, драма, криминал, ...
  • Обнаженная / Naked (Майк Ли, драма, комедия, 1993) [DVDRip, (2х)Профессиона ...
  • Без имени / Sin nombre (Кэри Фукунага, триллер, драма, криминал, приключени ...
  • Потерянный рейс / United 93 (Пол Гринграсс, драма, криминал, история, 2006) ...
  • Последнее соблазнение / The Last Seduction (Джон Дал, триллер, драма, крим ...
  • Убийство Генриха IV / Lassassinat dHenri IV: 14 mai 1610 (Жак Малатье, исто ...
  • Спасите тигра / Save the Tiger (Джон Г. Эвилдсен, драма, 1973) [DVDRip, Про ...
  • Мистер Аркадин / Mr. Arkadin (Орсон Уэллс, триллер, драма, криминал, детект ...
  • Если бы у меня был миллион / If I Had a Million (Джеймс Круз, Х. Брюс Хамбе ...
  • Информаторы / The Informers (Грегор Джордан, триллер, драма, криминал, 2008 ...
  • Свидетель обвинения / Witness for the Prosecution (Билли Уайлдер, триллер, ...
  • Тристана / Tristana (Луис Бунюэль, Драма, 1970) [DVDRip, Профессиональный ( ...
  • Дневники мотылька / The Moth Diaries (Мэри Хэррон, ужасы, драма, 2011) [DVD ...
  • Квадрофения / Quadrophenia (Фрэнк Роддэм, драма, криминал, музыка, 1979) [H ...
  • Оскорбление / The Offence (Сидни Люмет, триллер, драма, криминал, 1972) [DV ...
  • Конвейер / Blue Collar (Пол Шредер, драма, криминал, 1977) [DVDRip, Професс ...
  • Наследница / The Heiress (Уильям Уайлер, драма, мелодрама, 1949) [DVDRip, П ...
  • Рай и ад / Tengoku to jigoku (Акира Куросава, триллер, драма, криминал, 196 ...
  • Джек-потрошитель / Jack the Ripper (2 части из 2) (Дэвид Уикс, триллер, дра ...
  • Долгая Страстная пятница / The Long Good Friday (Джон Маккензи, триллер, др ...
  • Убей! / Kiru (Кихачи Окамото, боевик, драма, комедия, 1968) [DVDRip, Профес ...
  • Авария / Breakdown (Джонатан Мостоу, боевик, триллер, драма, криминал, дете ...
  • Информация
    Посетители, находящиеся в группе Гости, не могут оставлять комментарии к данной публикации.