вход на сайт

Имя пользователя :
Пароль :

Восстановление пароля Регистрация
Домовой (Карен Оганесян, триллер, 2008) [DVDRip-AVC, Оригинал]
Рейтинг:
(голосов: 1)



[img]{THEME}/images/logopost.png[/img]



Домовой
«Одна смерть на двоих»

Год выпуска: 2008
Страна: Россия
Производство: Централ Партнершип
Жанр: триллер

Режиссёр: Карен Оганесян
В ролях: Константин Хабенский, Владимир Машков, Чулпан Хаматова, Армен Джигарханян, Виталий Кищенко, Рамиль Сабитов, Ольга Сухорукова, Олег Чудницов, Олег Петровский, Александр Адабашьян...

Перевод: Оригинал
Субтитры: Отсутствуют

Описание: Автор бульварных детективов Антон Праченко переживает творческий кризис. Выйти из него ему весьма необычным способом помогает наемный убийца по прозвищу Домовой, который на его глазах безжалостно расстреливает машину с двумя людьми. Киллер становится его идейным вдохновителем, жестко и наглядно открывающим ему суровую правду жизни. Теперь они неразрывно связаны друг с другом…Качество: DVDRip-AVC
Продолжительность: 01:44:45

Формат: MKV
Видео кодек: x264
Аудио кодек: AC3
Видео: 720x432 @ 1024x432 (2.35:1), 25.000 fps, ~1 447 kbps avg, 0.186 bit/pixel
Аудио: 48 kHz, 6 channels (Front: L C R, Side: L R, LFE), 384.00 kbps avg
MediaInfo ▼TextVideo
ID : 1
Format : AVC
Format/Info : Advanced Video Codec
Format profile : [email protected]
Format settings, CABAC : Yes
Format settings, ReFrames : 8 frames
Codec ID : V_MPEG4/ISO/AVC
Duration : 1h 44mn
Bit rate : 1 447 Kbps
Width : 720 pixels
Height : 432 pixels
Display aspect ratio : 2.35:1
Original display aspect ratio : 1.667
Frame rate : 25.000 fps
Color space : YUV
Chroma subsampling : 4:2:0
Bit depth : 8 bits
Scan type : Progressive
Bits/(Pixel*Frame) : 0.186
Stream size : 1.06 GiB (77%)
Title : Encoded by @lolkin@
Writing library : x264 core 65 r1026kMod 745a48b
Encoding settings : cabac=1 / ref=8 / deblock=1:-2:-1 / analyse=0x3:0x133 / me=umh / subme=7 / psy_rd=0.6:0.6 / mixed_ref=1 / me_range=24 / chroma_me=1 / trellis=2 / 8x8dct=1 / cqm=0 / deadzone=21,11 / chroma_qp_offset=-4 / threads=3 / thread_queue=3 / nr=0 / decimate=0 / mbaff=0 / bframes=5 / b_pyramid=1 / b_adapt=2 / b_bias=0 / direct=3 / wpredb=1 / keyint=250 / keyint_min=25 / scenecut=40(pre) / rc=crf / crf=20.3000 / qcomp=0.60 / qpmin=10 / qpmax=27 / qpstep=4 / ip_ratio=1.40 / pb_ratio=1.40 / aq=1:1.00
Language : Russian

Audio
ID : 2
Format : AC-3
Format/Info : Audio Coding 3
Mode extension : CM (complete main)
Codec ID : A_AC3
Duration : 1h 44mn
Bit rate mode : Constant
Bit rate : 384 Kbps
Channel(s) : 6 channels
Channel positions : Front: L C R, Side: L R, LFE
Sampling rate : 48.0 KHz
Bit depth : 16 bits
Compression mode : Lossy
Stream size : 287 MiB (21%)
Language : Russian





6409fb7fc7a3b1a037d29a664f00f0a4c574bd9dДомовой (Карен Оганесян, триллер, 2008) [DVDRip-AVC, Оригинал] Домовой (Карен Оганесян, триллер, 2008) [DVDRip-AVC, Оригинал] " />

Аплоадер: Админ, дата: 4-01-2012, 23:55, торрент скачан: 359 раз

Понравилась раздача? Посмотрите эти:
  • Пастырь / Priest (Скотт Чарльз Стюарт, ужасы, фантастика, боевик, триллер, ...
  • О чём молчат девушки (Карен Оганесян, Комедия, 2013) [BDRip-AVC, Не требует ...
  • Бессмертные души / Soul Survivors (Стивен Карпентер, ужасы, триллер, драма, ...
  • Властелин измерений / Grande ourse - La cle des possibles (Патрис Сов, фант ...
  • Пять невест [Полная телевизионная версия] (Карен Оганесян, Комедия, 2011) [ ...
  • Персонаж / Stranger Than Fiction (Марк Форстер, Комедия, драма, фантастика, ...
  • Фантомы / Shutter (Масаюки Очиай, ужасы, триллер, детектив, 2008) [BDRip-AV ...
  • Забытое / The Forgotten (Джозеф Рубин, фантастика, триллер, драма, детектив ...
  • Левша (Иван Иванов-Вано, мультфильм, сказка, 1964 г.) [DVDRip-AVC, Оригинал ...
  • Му-му (Валентин Караваев, Мультфильм, 1987) [DVDRip-AVC, Оригинал]
  • На задней парте / 4 выпуска из (4) (Угаров Валерий Михайлович, короткометра ...
  • [3D] Мой кровавый Валентин / My Bloody Valentine (Патрик Люссье, ужасы, три ...
  • Ледниковый период: Гигантское Рождество / Ice Age: A Mammoth Christmas (Кар ...
  • Чаббчаббы спасают Рождество / The Chubbchubbs Save Xmas (Коуди Камерон, мул ...
  • Похищенная / A Lonely Place to Die (Джулиан Джилби, триллер, криминал, прик ...
  • Белый тигр (Карен Шахназаров, военный, 2012) [BDRip 720p, Не требуется]
  • Ворон / The Raven (Джеймс МакТиг, Триллер, детектив, 2012) [BDRip 720p, Дуб ...
  • Красные огни / Red Lights (Родриго Кортес, триллер, драма, детектив, 2012) ...
  • Все голы Евро-2012 [Футбол,2012, HDTVRip]
  • Chelsea - Season Review 2011-12 / Челси - Обзор Сезона 2011-12 [ Футбол, 20 ...
  • Mylene Farmer / Du Temps [2011, Pop, HDTVRip]
  • Mylene Farmer / Bleu Noir [2011, Pop, HDTVRip]
  • Домовой (Карен Оганесян / триллер / 2008 г) [DVDRip, оригинал]
  • Домовой (Карен Оганесян, триллер, 2008) [DVDRip, Оригинал]
  • Madonna / Girl Gone Wild [2012, Pop, HDTV]
  • Информация
    Посетители, находящиеся в группе Гости, не могут оставлять комментарии к данной публикации.