вход на сайт

Имя пользователя :
Пароль :

Восстановление пароля Регистрация
Жизнь за брата / The Heavy (Маркус Уоррен, триллер, 2010) [DVDRip, Профессиональный (многоголосный, закадровый)]
Рейтинг:
(голосов: 1)



[img]{THEME}/images/logopost.png[/img]



«Жизнь за брата / The Heavy»

«Right or wrong, is never black or white»

Год выпуска: 2010
Страна: СШАВеликобритания
Производство: Contraption Limited, Heavy Productions
Жанр: триллер

Режиссёр: Маркус Уоррен
В ролях: Гари Стретч, Винни Джонс, Стивен Ри, Шаннин Соссамон, Кристофер Ли, Ли Райан, Эдриан Пол, Джин Марш, Сэди Фрост, Джофф Белл

Перевод: Профессиональный (многоголосный, закадровый) [лицензия]
Озвучка: не известно
Субтитры:нет

Описание
Герой фильма — бандит-«шестерка» Бутс, который в уплату долга своему боссу должен убить собственного брата-политика. По ходу реализации плана герой заводит роман с симпатичной студенткой Клэр, чью квартиру он намерен использовать для убийства. Дело осложняется тем, что по следу потенциального киллера идет коррумпированный детектив Данн.

» IMDB-рейтинг:4.90 (1 035)

» КиноПоиск-рейтинг:4.820 (148)

» Скачать сэмпл


Доп. информация
Премьеры ▼премьера (мир)7 ноября 2008
премьера (РФ)13 октября 2011
релиз на Blu-Ray 25 сентября 2008, «Columbia/Sony»
релиз на DVD 8 декабря 2011, «New Dream media»
Рейтинг MPAA ▼
лицам до 17 лет обязательно присутствие взрослого
Mediainfo ▼TextОбщее
Полное имя : D:DownloadsЖизнь за брата.2010.DVDRip.XviD.avi
Формат : AVI
Формат/Информация : Audio Video Interleave
Размер файла : 1,45 Гбайт
Продолжительность : 1 ч. 37 м.
Общий поток : 2139 Кбит/сек
Программа кодирования : VirtualDubMod 1.5.10.3 | www.virtualdub-fr.org || (build 2550/release)
Библиотека кодирования : VirtualDubMod build 2550/release

Видео
Идентификатор : 0
Формат : MPEG-4 Visual
Профиль формата : Advanced [email protected]
Параметр BVOP формата : 2
Параметр QPel формата : Нет
Параметр GMC формата : Без точки перехода
Параметр матрицы формата : Default (MPEG)
Идентификатор кодека : XVID
Идентификатор кодека/Подсказка : XviD
Продолжительность : 1 ч. 37 м.
Битрейт : 1873 Кбит/сек
Ширина : 720 пикс.
Высота : 384 пикс.
Соотношение сторон : 1,875
Частота кадров : 25,000 кадр/сек
Цветовое пространство : YUV
Подвыборка цветности : 4:2:0
Битовая глубина : 8 бит
Тип развёртки : Прогрессивная
Метод сжатия : С потерями
Бит/(Пиксели*Кадры) : 0.271
Размер потока : 1,27 Гбайт (88%)
Библиотека кодирования : XviD 1.2.1 (UTC 2008-12-04)

Аудио
Идентификатор : 1
Формат : AC-3
Формат/Информация : Audio Coding 3
Расширение режима : CM (complete main)
Идентификатор кодека : 2000
Продолжительность : 1 ч. 37 м.
Вид битрейта : Постоянный
Битрейт : 256 Кбит/сек
Канал(ы) : 6 канала(ов)
Расположение каналов : Front: L C R, Side: L R, LFE
Частота : 48,0 КГц
Битовая глубина : 16 бит
Метод сжатия : С потерями
Размер потока : 178 Мбайт (12%)
Выравнивание : Разделение по промежуткам
Продолжительность промежутка : 40 мс. (1,00 видеокадр)
Время предзагрузки промежутка : 500 ms


Тех. данные
Качество: ~ ÐVÐRìρ ~
Продолжительность: 01:37:22 часа


Формат: AVI
Видео кодек: XviD
Аудио кодек: AC-3
Видео: 720x384 (1.88:1), 25 fps, XviD build 50 ~1873 kbps avg, 0.27 bit/pixel
Аудио: 48 kHz, AC3 Dolby Digital, 3/2 (L,C,R,l,r) + LFE ch, ~256 kbps avg



cтол заказов | пожелания | стол заказов по рипам


795a6839566b8585dd8b07fef73b150317aaa34eЖизнь за брата / The Heavy (Маркус Уоррен, триллер, 2010) [DVDRip, Профессиональный (многоголосный, закадровый)] Жизнь за брата / The Heavy (Маркус Уоррен, триллер, 2010) [DVDRip, Профессиональный (многоголосный, закадровый)] " />

Аплоадер: Админ, дата: 22-12-2011, 12:41, торрент скачан: 359 раз

Понравилась раздача? Посмотрите эти:
  • Одноклассники 2 / Grown Ups 2 (Деннис Дуган, Комедия, 2013) [BDRip, Професс ...
  • Околофутбола (Антон Борматов, драма, криминал, 2013) [DVDRip, Не требуется] ...
  • Прошлое / Le passé (Асгар Фархади, Драма, детектив , 2013) [HDRip, Авторски ...
  • Грязная кампания за честные выборы / The Campaign (Джей Роуч , Комедия,201 ...
  • Миллион для чайников / The Brass Teapot (Рамаа Мосли, Фэнтези, триллер, ком ...
  • Глушь / Resurrection County (Матт Зеттел, Ужасы,триллер, 2008) [DVDRip, Про ...
  • Двенадцать бедствий на Рождество / The 12 Disasters of Christmas (Стивен Р. ...
  • Жил-был тигр / Ek Tha Tiger (Кабир Кхан, боевик, триллер , 2012) [ HDRip, ...
  • Приключения Икабода и Мистера Тоада / The Adventures Of Ichabod And Mr. Toa ...
  • Легенда о МорДу / The Legend of MorDu (Брайан Ларсен, Короткометражный, ска ...
  • Отбой / Taps (Харольд Беккер, Драма, 1981) [DVDRip, Профессиональный (много ...
  • Путешествие на дно моря / Voyage to the Bottom of the Sea (Ирвин Аллен / I ...
  • Кажется, я люблю свою жену / I Think I Love My Wife (Крис Рок, Драма, мелод ...
  • Бог любви / God of Love (Люк Мэзени, Короткометражка, фэнтези, комедия, мел ...
  • Покорить высоту / Take It to the Limit (Сэм Кит / Sam Kieth, семейный, 2000 ...
  • Боец из трущоб / Gutter King (Кейт Алан Моррис / Keith Alan Morris, боевик, ...
  • Кошмар / Nightmare / Qing Yan (Херман Яу, ужасы, триллер, 2012) [DVDRip, Лю ...
  • Детский душ / Baby Shower (Pablo Illanes, Ужасы, 2011) [DVDRip, Любительски ...
  • Ловчий смерти / Death Hunter (Дастин Рикерт, Ужасы, 2010) [DVDRip, Професси ...
  • Пупупиду / Poupoupidou (Жеральд Юсташ-Матье, комедия, криминал, 2011) [DVDR ...
  • Челюсти 3D / Shark Night 3D (Дэвид Р. Эллис, ужасы, триллер, 2011) [HDRip, ...
  • Жизнь за брата / The Heavy (Маркус Уоррен, триллер, 2010) [BDRip, Профессио ...
  • Глаз шторма / The Eye of the Storm (Фред Скеписи, Драма, 2011) [HDRip, Проф ...
  • Человек из банки (Иван Кульнев, Комедия, 2012) [DVDRip, Не требуется]
  • Сдохни, Джон Такер / John Tucker Must Die (Бетти Томас, мелодрама, комедия, ...
  • Информация
    Посетители, находящиеся в группе Гости, не могут оставлять комментарии к данной публикации.