вход на сайт

Имя пользователя :
Пароль :

Восстановление пароля Регистрация
Дом грёз / Dream House (Джим Шеридан / Jim Sheridan, триллер, драма, детектив, 2011) [BDRip-AVC, Дублированный]
Рейтинг:
(голосов: 1)



[img]{THEME}/images/logopost.png[/img]



Дом грёз / Dream House
«Once upon a time, there were two little girls who lived in a house.»

Год выпуска: 2011
Страна: США
Производство: Morgan Creek Productions, Cliffjack Motion Pictures
Жанр: триллер, драма, детектив

Режиссёр: Джим Шеридан
В ролях: Дэниэл Крэйг, Рейчел Вайс, Наоми Уоттс, Элиас Котеас, Мартон Чокаш, Тейлор Джир, Клер Джир, Рэйчел Дж. Фокс, Джейн Александр, Брайан Мюррей

Перевод: Дублированный [лицензия]
Субтитры: Отсутствуют

Описание: Состоятельный издатель со своей женой и двумя дочерьми переезжают в тихий провинциальный городок, который на поверку оказывается не таким уж и тихим. При участии любопытной соседки семейство узнает, что их дом стал местом жестокого убийства, а преступник до сих пор разгуливает на свободе.Дата премьеры (мир): 29 сентября 2011
Дата премьеры (РФ): 29 сентября 2011, «Каскад»
релиз на Blu-Ray: 15 декабря 2011, «CP-Digital»
релиз на DVD: 15 декабря 2011, «CP-Digital»
Качество: BDRip-AVC (Исходник: BDRemux)
Продолжительность: 01:30:49

Автор рипа: chopper887

Формат: MKV
Видео кодек: x264
Аудио кодек: AC3
Видео: 1 272x530 (2.40:1), 23.976 fps, ~1 844 Kbps avg, 0.114 bit/pixel
Аудио: 48 kHz, 6 channel (Front: L C R, Side: L R, LFE), 448.00 kbps avg
MediaInfo ▼TextVideo
ID : 1
Format : AVC
Format/Info : Advanced Video Codec
Format profile : [email protected]
Format settings, CABAC : Yes
Format settings, ReFrames : 10 frames
Codec ID : V_MPEG4/ISO/AVC
Duration : 1h 30mn
Bit rate : 1 844 Kbps
Width : 1 272 pixels
Height : 530 pixels
Display aspect ratio : 2.40:1
Frame rate : 23.976 fps
Color space : YUV
Chroma subsampling : 4:2:0
Bit depth : 8 bits
Scan type : Progressive
Bits/(Pixel*Frame) : 0.114
Stream size : 1.14 GiB (78%)
Title : Dom.Grez.chopper887.mkv
Writing library : x264 core 116 r2074 2641b9e
Encoding settings : cabac=1 / ref=10 / deblock=1:-2:-1 / analyse=0x3:0x133 / me=umh / subme=11 / psy=1 / psy_rd=1.00:0.15 / mixed_ref=1 / me_range=32 / chroma_me=1 / trellis=2 / 8x8dct=1 / cqm=0 / deadzone=21,11 / fast_pskip=0 / chroma_qp_offset=-3 / threads=12 / sliced_threads=0 / nr=0 / decimate=1 / interlaced=0 / bluray_compat=0 / constrained_intra=0 / bframes=8 / b_pyramid=2 / b_adapt=2 / b_bias=0 / direct=3 / weightb=1 / open_gop=0 / weightp=2 / keyint=250 / keyint_min=23 / scenecut=40 / intra_refresh=0 / rc_lookahead=80 / rc=2pass / mbtree=1 / bitrate=1844 / ratetol=1.0 / qcomp=0.60 / qpmin=10 / qpmax=51 / qpstep=4 / cplxblur=20.0 / qblur=0.5 / ip_ratio=1.40 / aq=1:1.10
Language : English

Audio
ID : 2
Format : AC-3
Format/Info : Audio Coding 3
Mode extension : CM (complete main)
Codec ID : A_AC3
Duration : 1h 30mn
Bit rate mode : Constant
Bit rate : 448 Kbps
Channel(s) : 6 channels
Channel positions : Front: L C R, Side: L R, LFE
Sampling rate : 48.0 KHz
Bit depth : 16 bits
Compression mode : Lossy
Stream size : 291 MiB (20%)
Title : Дубляж


726c48ea9f17feeab8be0c3d2c7249c09e15254eДом грёз / Dream House (Джим Шеридан / Jim Sheridan, триллер, драма, детектив, 2011) [BDRip-AVC, Дублированный] Дом грёз / Dream House (Джим Шеридан / Jim Sheridan, триллер, драма, детектив, 2011) [BDRip-AVC, Дублированный] " />

Аплоадер: Админ, дата: 15-12-2011, 12:58, торрент скачан: 359 раз

Понравилась раздача? Посмотрите эти:
  • Каньоны / The Canyons (Пол Шредер, триллер, драма, 2013) [BDRip AVC, Дублир ...
  • Погоня / Abduction (Джон Синглтон, боевик, триллер, драма, детектив, 2011) ...
  • Коломбиана / Colombiana (Оливье Мегатон, боевик, триллер, драма, приключени ...
  • Аноним / Anonymous (Роланд Эммерих, триллер, драма, 2011) [BDRip-AVC, Профе ...
  • Дом грёз / Dream House (Джим Шеридан, триллер, драма, детектив, 2011) [BDRi ...
  • Дом грёз / Dream House (Джим Шеридан, триллер, драма, детектив, 2011) [BDRi ...
  • Голодный кролик атакует / Seeking Justice (Роджер Дональдсон, боевик, 2011) ...
  • Голодный кролик атакует / Seeking Justice (Роджер Дональдсон / Roger Donald ...
  • Хранитель времени / Hugo (Мартин Скорсезе, Драма, 2011) [BDRip-AVC, Професс ...
  • Стрелок / Shooter (Антуан Фукуа, боевик, триллер, криминал, детектив, 2007) ...
  • Неизвестный / Unknown (Жауме Серра / Jaume Collet-Serra, триллер, драма, де ...
  • Дом грёз / Dream House (Джим Шеридан, триллер, драма, детектив, 2011) [HDRi ...
  • Исходный код / Source Code (Дункан Джонс, фантастика, боевик, триллер, 2011 ...
  • Профессионал / Killer Elite (Гэри МакКендри, Боевик, Триллер, Криминал, 201 ...
  • Дом грёз / Dream House (Джим Шеридан, триллер, драма, детектив, 2011) [BDRi ...
  • Код Доступа «Кейптаун» / Safe House (Дэниэл Эспиноза, боевик, триллер, крим ...
  • Ворон / The Raven (Джеймс МакТиг, Триллер, детектив, 2012) [BDRip 720p, Дуб ...
  • Mylene Farmer / Du Temps [2011, Pop, HDTVRip]
  • Mylene Farmer / Bleu Noir [2011, Pop, HDTVRip]
  • Дом грёз / Dream House (Джим Шеридан, триллер, драма, детектив, 2011) [BDRi ...
  • Дом грёз / Dream House (Джим Шеридан, триллер, драма, детектив, 2011) [BDRi ...
  • Профессионал / Killer Elite (Гэри МакКендри, боевик, триллер, криминал, 201 ...
  • Дом грёз / Dream House (Джим Шеридан, триллер, драма, детектив, 2011г) [320 ...
  • Дом грёз / Dream House (Джим Шеридан, триллер, драма, детектив, 2011) [HDRi ...
  • Дом грёз / Dream House (Джим Шеридан, триллер, драма, детектив, 2011) [BDRi ...
  • Информация
    Посетители, находящиеся в группе Гости, не могут оставлять комментарии к данной публикации.