вход на сайт

Имя пользователя :
Пароль :

Восстановление пароля Регистрация
Коллекционер / The Collector (Маркус Данстэн, Ужасы, триллер, 2009) [BDRip-AVC, Дубляж, Sub]
Рейтинг:
(голосов: 1)



[img]{THEME}/images/logopost.png[/img]



Коллекционер / The Collector
«Кто будет следующим в его коллекции?»

Год выпуска: 2009
Страна: США
Производство: Fortress Features
Жанр: Ужасы, триллер

Режиссёр: Маркус Данстэн
В ролях: Мадлен Зима, Андреа Рот, Джош Стюарт, Хуан Фернандес, Даниелла Алонсо, Роберт Уиздом, Майкл Рейли Бурк, Карли Скотт Коллинз, Кристал Майо, Дайан Голднер

Перевод: Дубляж
Субтитры: Русские, английские

Описание:
Бывший домушник Аркин забирается в загородный коттедж своего начальника с тем, чтобы ограбив его, выплатить долг своей бывшей жене. Однако попав внутрь, он вскоре понимает, что дом и его обитатели уже захвачены крайне неприятным типом в плюшевой маске и при полном наборе пыточных инструментов времен Испанской Инквизиции, после чего предпринимает отчаянную попытку спасти семью, которую он изначально собирался обчистить.

Автор рипа:
Rockboy



Дата премьеры (мир): 31 июля 2009
Дата премьеры (РФ): 5 августа 2010, «Каравелла DDC»

Качество: BDRip-AVC | исх. Коллекционер / The Collector (2009) BDRemux
Продолжительность: 01:29:54 час.

Формат: MKV
Видео кодек: x264
Аудио кодек: AC3
Видео: 840x350 (2,40:1), 23.976 fps, x264 ~1 930 kbps avg, 0.274 bit/pixel
Аудио: 48 kHz, AC3, 6 ch, ~384.00 kbps avg

MediaInfo | x264 log ▼"x264 log" ▼x264 [info]: frame I:1026 Avg QP:18.17 size: 42030
x264 [info]: frame P:26187 Avg QP:20.63 size: 15943
x264 [info]: frame B:102233 Avg QP:21.98 size: 8210
x264 [info]: consecutive B-frames: 2.1% 2.2% 5.9% 13.1% 12.9% 46.2% 9.4% 2.8% 5.5%Video
ID : 1
Format : AVC
Format/Info : Advanced Video Codec
Format profile : [email protected]
Format settings, CABAC : Yes
Format settings, ReFrames : 8 frames
Codec ID : V_MPEG4/ISO/AVC
Duration : 1h 29mn
Bit rate : 1 930 Kbps
Width : 840 pixels
Height : 350 pixels
Display aspect ratio : 2.40:1
Frame rate : 24.000 fps
Color space : YUV
Chroma subsampling : 4:2:0
Bit depth : 8 bits
Scan type : Progressive
Bits/(Pixel*Frame) : 0.274
Stream size : 1.18 GiB (81%)
Writing library : x264 core 125 r2200 999b753
Encoding settings : cabac=1 / ref=8 / deblock=1:-2:-2 / analyse=0x3:0x133 / me=umh / subme=10 / psy=1 / psy_rd=1.00:0.15 / mixed_ref=1 / me_range=32 / chroma_me=1 / trellis=2 / 8x8dct=1 / cqm=0 / deadzone=21,11 / fast_pskip=0 / chroma_qp_offset=-3 / threads=6 / lookahead_threads=1 / sliced_threads=0 / nr=0 / decimate=0 / interlaced=0 / bluray_compat=0 / constrained_intra=0 / bframes=8 / b_pyramid=2 / b_adapt=2 / b_bias=0 / direct=3 / weightb=1 / open_gop=0 / weightp=2 / keyint=250 / keyint_min=23 / scenecut=40 / intra_refresh=0 / rc_lookahead=40 / rc=2pass / mbtree=0 / bitrate=1930 / ratetol=1.0 / qcomp=0.60 / qpmin=10 / qpmax=51 / qpstep=4 / cplxblur=20.0 / qblur=0.5 / vbv_maxrate=20000 / vbv_bufsize=20000 / nal_hrd=none / ip_ratio=1.40 / pb_ratio=1.30 / aq=1:1.00
Language : English
Default : Yes
Forced : No

Audio
ID : 2
Format : AC-3
Format/Info : Audio Coding 3
Mode extension : CM (complete main)
Format settings, Endianness : Big
Codec ID : A_AC3
Duration : 1h 29mn
Bit rate mode : Constant
Bit rate : 384 Kbps
Channel(s) : 6 channels
Channel positions : Front: L C R, Side: L R, LFE
Sampling rate : 48.0 KHz
Bit depth : 16 bits
Compression mode : Lossy
Stream size : 247 MiB (17%)
Language : Russian
Default : Yes
Forced : No

Text #1
ID : 3
Format : UTF-8
Codec ID : S_TEXT/UTF8
Codec ID/Info : UTF-8 Plain Text
Language : Russian
Default : No
Forced : No

Text #2
ID : 4
Format : UTF-8
Codec ID : S_TEXT/UTF8
Codec ID/Info : UTF-8 Plain Text
Language : English
Default : No
Forced : No

652591a5759a64a9ba91ec770f6c6d6b0368eabaКоллекционер / The Collector (Маркус Данстэн, Ужасы, триллер, 2009) [BDRip-AVC, Дубляж, Sub] Коллекционер / The Collector (Маркус Данстэн, Ужасы, триллер, 2009) [BDRip-AVC, Дубляж, Sub] " />

Аплоадер: Админ, дата: 9-01-2013, 00:22, торрент скачан: 359 раз

Понравилась раздача? Посмотрите эти:
  • Коллекционер [Дилогия] / The Collection [Dilogy] (Маркус Данстэн, Ужасы, бо ...
  • Иллюзия обмана / Now You See Me [Theatrical Cut] (Луи Летерье / Louis Leter ...
  • Последний вампир / Blood: The Last Vampire (Крис Наон, Ужасы, фэнтези, боев ...
  • Место под соснами / The Place Beyond the Pines (Дерек Сиенфрэнс, Драма, Кри ...
  • Коллекционер / The Collector (Уильям Уайлер, Триллер, драма, 1965) [BDRip-A ...
  • Коллекционер / The Collector (Маркус Данстэн, Ужасы, Триллер, 2009) [320x24 ...
  • Коллекционер 2 / The Collector (Маркус Данстэн, Ужасы, Боевик, Триллер, 201 ...
  • Синистер / Sinister (Скотт Дерриксон, ужасы, детектив, 2012) [BDRip-AVC, Ду ...
  • 007: Координаты «Скайфолл» / Skyfall (Сэм Мендес, Боевик, триллер, криминал ...
  • Красные огни / Red Lights (Родриго Кортес, Ужасы, триллер, драма, 2012) [BD ...
  • Исходный код / Source Code (Дункан Джонс, Фантастика, боевик, триллер, драм ...
  • Запретная зона / Chernobyl Diaries (Брэдли Паркер, Ужасы, 2012) [BDRip-AVC, ...
  • Коллекционер 2 / The Collection (Маркус Данстэн, ужасы, боевик, триллер , 2 ...
  • Коллекционер / The Collector (Маркус Данстэн, ужасы, триллер, 2009) [HDRip- ...
  • Коллекционер / The Collector (Маркус Данстэн, ужасы, триллер, 2009) [BDRip ...
  • Хижина в лесу / The Cabin in the Woods (Дрю Годдард, Ужасы, фантастика, три ...
  • Явление / The Apparition (Тодд Линкольн, Ужасы, триллер, 2012) [BDRip 720p, ...
  • Коллекционер 2 / The Collection (Маркус Данстэн, ужасы, боевик, триллер, 20 ...
  • Коллекционер 2 / The Collection (Маркус Данстэн, ужасы, боевик, триллер, 20 ...
  • Mylene Farmer / Du Temps [2011, Pop, HDTVRip]
  • Mylene Farmer / Bleu Noir [2011, Pop, HDTVRip]
  • Коллекционер / The Collector (Маркус Данстэн / Marcus Dunstan, Ужасы, трилл ...
  • Коллекционер / The Collector (Маркус Данстэн, ужасы, триллер, 2009) [HDRip, ...
  • Коллекционер / The Collector (Маркус Данстэн, ужасы, триллер, криминал, 200 ...
  • Хостел 3 / Hostel: Part III (Скотт Спигел / Scott Spiegel, ужасы, триллер, ...
  • Информация
    Посетители, находящиеся в группе Гости, не могут оставлять комментарии к данной публикации.