вход на сайт

Имя пользователя :
Пароль :

Восстановление пароля Регистрация
У дьявола нет лица / Plasterhead (Кевин Хиггинс / Kevin Higgins, ужасы, триллер, детектив, 2007) [DVDRip, Профессиональный (многоголосый, закадровый)]
Рейтинг:
(голосов: 1)



[img]{THEME}/images/logopost.png[/img]



У дьявола нет лица / Plasterhead

Год выпуска: 2007
Страна: США
Производство: Plasterhead Productions
Жанр: ужасы, триллер, детектив

Режиссёр: Кевин Хиггинс / Kevin Higgins
В ролях: Чед Аллен, Бай Лин, Джеймс Руссо, Рон Джереми, Бифф Йеджер, Нэнси Фергюсон, Белинда Веймауф, Рэймонд Ма, Джени Чуа, Мими Сэвадж...

Перевод:Профессиональный (многоголосый, закадровый)
Субтитры: нет

Описание: Каждый город имеет свои легенды. Зачастую они так страшны, что лучше о них забыть. Горе тем, кто оживит призраков прошлого. Безликие и беспощадные…
Группа студентов колледжа из Нью-Джерси отправляется в сельскую местность Западной Вирджинии, чтобы провести зимние каникулы. Там, неожиданно для самих себя друзья раскрывают одну тайну… Но невинное любопытство превращает каникулы в ад… Никто не верит в дьявола?! Гипсовая голова — это последнее, что они увидят в своей жизни…



Качество: DVDRip | Сэмпл
Продолжительность: ~01:33:56 час.

Формат: AVI
Видео кодек: XviD
Аудио кодек: MP3
Видео: 656x368 (16:9), 25 fps,XviD build 65 ~971 kbps avg, 0.161bit/pixel
Аудио: 48 kHz, MPEG Layer 3, 2 ch, ~128.00 kbps avg

MediaInfo ▼TextОбщее
Полное имя : U.dyavola.net.litsa.2006.P.DVD.745MB.avi
Формат : AVI
Формат/Информация : Audio Video Interleave
Размер файла : 745 Мбайт
Продолжительность : 1 ч. 33 м.
Общий поток : 1108 Кбит/сек
Программа кодирования : VirtualDubMod 1.5.10.3 | www.virtualdub-fr.org || (build 2550/release)
Библиотека кодирования : VirtualDubMod build 2550/release

Видео
Идентификатор : 0
Формат : MPEG-4 Visual
Профиль формата : Advanced [email protected]
Параметр BVOP формата : 1
Параметр QPel формата : Нет
Параметр GMC формата : Без точки перехода
Параметр матрицы формата : Выборочная
Идентификатор кодека : XVID
Идентификатор кодека/Подсказка : XviD
Продолжительность : 1 ч. 33 м.
Битрейт : 971 Кбит/сек
Ширина : 656 пикселей
Высота : 368 пикселей
Соотношение сторон : 16:9
Частота кадров : 25,000 кадров/сек
Цветовое пространство : YUV
Субдискретизация насыщенности : 4:2:0
Битовая глубина : 8 бит
Тип развёртки : Прогрессивная
Метод сжатия : С потерями
Бит/(Пиксели*Кадры) : 0.161
Размер потока : 652 Мбайт (88%)
Библиотека кодирования : XviD 65

Аудио
Идентификатор : 1
Формат : MPEG Audio
Версия формата : Version 1
Профиль формата : Layer 3
Идентификатор кодека : 55
Идентификатор кодека/Подсказка : MP3
Продолжительность : 1 ч. 33 м.
Вид битрейта : Постоянный
Битрейт : 128 Кбит/сек
Каналы : 2 канала
Частота : 48,0 КГц
Метод сжатия : С потерями
Размер потока : 86,0 Мбайт (12%)
Выравнивание : Соединение по промежуткам
Продолжительность промежутка : 40 мс. (1,00 видеокадр)
Время предзагрузки промежутка : 504 мс.


7784bfccb6f86a2b26d4d69dac420e4ac4427971У дьявола нет лица / Plasterhead (Кевин Хиггинс / Kevin Higgins, ужасы, триллер, детектив, 2007) [DVDRip, Профессиональный (многоголосый, закадровый)] У дьявола нет лица / Plasterhead (Кевин Хиггинс / Kevin Higgins, ужасы, триллер, детектив, 2007) [DVDRip, Профессиональный (многоголосый, закадровый)] " />

Аплоадер: Админ, дата: 2-01-2013, 16:02, торрент скачан: 359 раз

Понравилась раздача? Посмотрите эти:
  • Грязная кампания за честные выборы / The Campaign (Джей Роуч , Комедия,201 ...
  • Слежка / The Letter (Джей Ананья, Триллер, драма, 2012) [DVDRip, Профессион ...
  • Астрал на улице Арлетт / 388 Arletta Avenue (Рэндолл Коул, Триллер, 2011) [ ...
  • Я всегда буду знать, что вы сделали прошлым летом / Ill Always Know What Yo ...
  • Глушь / Resurrection County (Матт Зеттел, Ужасы,триллер, 2008) [DVDRip, Про ...
  • Путешествие на дно моря / Voyage to the Bottom of the Sea (Ирвин Аллен / I ...
  • Кажется, я люблю свою жену / I Think I Love My Wife (Крис Рок, Драма, мелод ...
  • Кажется, я люблю свою жену / I Think I Love My Wife (Крис Рок, Драма, мелод ...
  • Темный сахар / Brown Sugar (Рик Фамуйива, Драма, мелодрама, комедия, музыка ...
  • Огненный шторм / Firestorm (Дин Семлер, Боевик, Триллер, 1998) [DVDRip, Про ...
  • Бог любви / God of Love (Люк Мэзени, Короткометражка, фэнтези, комедия, мел ...
  • Любовь по расписанию / Поезд (Сергей Мезенцев, мелодрама, 2012) [HDTVRip, Н ...
  • К-9: Рождественские приключения / K9 Adventures: A Christmas Tale (Бен Гурл ...
  • Заместитель / Il supplente (Андреа Жублин, Короткометражка, комедия, 2007) ...
  • Покорить высоту / Take It to the Limit (Сэм Кит / Sam Kieth, семейный, 2000 ...
  • А что насчет тебя? / How About You (Энтони Бирн, Драма, комедия, 2007) [DVD ...
  • Брат якудзы / Brother (Такеши Китано, триллер, драма, криминал, 2000) [HDRi ...
  • Кошмар / Nightmare / Qing Yan (Херман Яу, ужасы, триллер, 2012) [DVDRip, Лю ...
  • Детский душ / Baby Shower (Pablo Illanes, Ужасы, 2011) [DVDRip, Любительски ...
  • Крест / Cross (Патрик Дархэм, боевик, 2011) [DVDRip, Профессиональный (мног ...
  • Пулбой: Спасайся кто может / Poolboy: Drowning Out the Fury (Гарретт Бравит ...
  • В лесу / The Forest (Шан Серафин, ужасы, триллер , 2011) [SATRip, Профессио ...
  • Хостел 3 / Hostel: Part III (Скотт Спигел, ужасы, триллер, детектив, 2011) ...
  • Пожирая живых / Ночь зомби / Zombie Night (Дэвид Дж. Фрэнсис, Ужасы, комеди ...
  • Застенок / The Jailhouse (Билли Льюис, Ужасы, Триллер, Детектив, 2009) [DV ...
  • Информация
    Посетители, находящиеся в группе Гости, не могут оставлять комментарии к данной публикации.