вход на сайт

Имя пользователя :
Пароль :

Восстановление пароля Регистрация
Остаться в живых / Stay Alive (Уильям Брент Белл, ужасы, триллер, 2006) [DVDRip, Профессиональный (многоголосый закадровый) R5] [Режиссёрская версия]
Рейтинг:
(голосов: 1)



[img]{THEME}/images/logopost.png[/img]



•Остаться в живых / Stay Alive •
♥ Год выпуска: 2006
♥ Страна: США
♥ Производство: Endgame Entertainment, Hollywood Pictures.
♥ Жанр: ужасы, триллер

♥ Режиссёр: Уильям Брент Белл
♥ В ролях: Джон Фостер, Самира Армстронг, Фрэнки Муниз, Джимми Симпсон, Уенделл Пирс, Майло Вентимилья, София Буш, Адам Голдберг, Билли Слотер, Николь Оппермэнн, Эйприл Вуд, Моника Моника

♥ Перевод: Профессиональный (многоголосый закадровый) R5
♥ Субтитры: нет

♥ Описание: Группа подростков из Нью-Орлеана просто помешана на пугающей ролевой видео-игре — «Остаться в живых». Суть игры — разыгрывать леденящие душу истории из жизни таинственной аристократки, которая жила в 17 веке и носила прозвище «Кровавая графиня».

Неожиданно один за другим подростки начинают погибать, причем убивают их тем же изощренным способом, что и их персонажей. Жестокий вымысел все теснее и теснее переплетается с реальностью… Ребятам нужно успеть победить порочную и беспощадную «Кровавую графиню». Им нужно остаться в живых


MediaInfo ▼
Text
General
Complete name : C:Ostatsya_v_zhivyh_2006_DVDRip.avi
Format : AVI
Format/Info : Audio Video Interleave
File size : 1.46 GiB
Duration : 1h 36mn
Overall bit rate : 2 159 Kbps
Writing application : VirtualDubMod 1.5.10.3 | www.virtualdub-fr.org || (build 2550/release)
Writing library : VirtualDubMod build 2550/release
Video #0
ID : 0
Format : MPEG-4 Visual
Format profile : Advanced [email protected]
Format settings, BVOP : 1
Format settings, QPel : No
Format settings, GMC : No warppoints
Format settings, Matrix : Custom
Codec ID : XVID
Codec ID/Hint : XviD
Duration : 1h 36mn
Bit rate : 1 702 Kbps
Width : 704 pixels
Height : 304 pixels
Display aspect ratio : 2.35:1
Frame rate : 25.000 fps
Color space : YUV
Chroma subsampling : 4:2:0
Bit depth : 8 bits
Scan type : Progressive
Compression mode : Lossy
Bits/(Pixel*Frame) : 0.318
Stream size : 1.15 GiB (79%)
Writing library : XviD 73
Audio #1
ID : 1
Format : AC-3
Format/Info : Audio Coding 3
Mode extension : CM (complete main)
Codec ID : 2000
Duration : 1h 36mn
Bit rate mode : Constant
Bit rate : 448 Kbps
Channel(s) : 6 channels
Channel positions : Front: L C R, Side: L R, LFE
Sampling rate : 48.0 KHz
Bit depth : 16 bits
Compression mode : Lossy
Delay relative to video : 500ms
Stream size : 310 MiB (21%)
Alignment : Split accross interleaves
Interleave, duration : 40 ms (1.00 video frame)
Interleave, preload duration : 500 ms
♥ Качество: DVDRip
♥ Продолжительность: 01:36:42

♥ Формат: AVI
♥ Видео кодек: XviD
♥ Аудио кодек: AC3
♥ Видео: 704x304 (2.35:1), 25 fps, XviD build 73 ~1702 kbps avg, 0.318 bit/pixel
♥ Аудио1: 48 kHz, AC3 Dolby Digital, 3/2 (L,C,R,l,r) + LFE ch, ~448.00 kbps avg


♥ Дата премьеры (мир): 24 марта 2006
♥ Дата премьеры (РФ): 11 мая 2006, «Парадиз»


Релиз Группы "Virtus"

Стол заказов / Вступление в РГ / Благодарности, критика и другое


0d4d15fea772eb5d8baaa5ff91c5d73bf531f0e9Остаться в живых / Stay Alive (Уильям Брент Белл, ужасы, триллер, 2006) [DVDRip, Профессиональный (многоголосый закадровый) R5] [Режиссёрская версия] Остаться в живых / Stay Alive (Уильям Брент Белл, ужасы, триллер, 2006) [DVDRip, Профессиональный (многоголосый закадровый) R5] [Режиссёрская версия] " />

Аплоадер: Админ, дата: 30-12-2012, 20:08, торрент скачан: 359 раз

Понравилась раздача? Посмотрите эти:
  • Вирус / Flu (Ким Сон Су, Драма, 2013) [HDTVRip, Любительский (двухголосый з ...
  • Орудие смерти / A-i-deul... (Ли Гю Ман, Триллер, криминал, 2011) [DVDRip, П ...
  • Мои герои / Mes heros (Эрик Беснард, комедия, 2012) [HDRip, Профессиональны ...
  • Мужество / Wymyk (Грег Зглински, драма, 2011) [DVDRip, Любительский (одного ...
  • 42 / 42 (Брайан Хелгеленд, драма, биография, спорт, 2013) [BDRip, Профессио ...
  • Слабые проблески / Rushlights (Энтони Стац, Триллер, Мелодрама, Криминал, 2 ...
  • Ночь тамплиера / Night of the Templar (Пол Сэмпсон, Ужасы, фантастика, боев ...
  • Звук моего голоса / Sound of My Voice (Зал Батманглидж, триллер, драма, 201 ...
  • 23:59 / 23:59 (Гилберт Чан, Ужасы, 2011) [HDRip, Любительский (одноголосый ...
  • Безопасность не гарантируется / Safety Not Guaranteed (Колин Треворроу, фан ...
  • Любовь на кончиках пальцев / Populaire (Режис Ройнсар, Мелодрама, комедия, ...
  • В хлам / Smashed (Джеймс Понсольдт, Драма, комедия, 2012) [HDRip, Профессио ...
  • Тюремщик / Screwed (Рег Тревисс / Reg Traviss, Драма, 2011) [DVDRip , Люби ...
  • Плохая актриса / Bad Actress (Роберт Ли Кинг, комедия, 2011) [DVDRip, Профе ...
  • Остановка / Rest Stop: Dead Ahead (Джон Шибан, ужасы, триллер, 2006) [HDRip ...
  • Захват / Carjacked (Джон Бонито, триллер, 2011)[BDRip, Профессиональный (мн ...
  • Коллекционер 2 / The Collection (Маркус Данстэн, ужасы, боевик, триллер , 2 ...
  • Дом вверх дном / Bringing Down the House (Адам Шенкман, комедия, 2003) [BDR ...
  • Битва в пустыне / The Objective (Дэниэл Мирик, ужасы, фантастика, триллер, ...
  • Страх / Fear (Джеймс Фоули, ужасы, триллер, драма, 1996) [BDRip, Дубляж]
  • Остаться в живых / Stay Alive (Уильям Брент Белл , ужасы, триллер , 2006) ...
  • Супершторм в Сиэтле / Seattle Superstorm (Джейсон Бурк, фантастика, боевик ...
  • Инкубус / Inkubus (Гленн Чиано, Ужасы, 2011) [DVDRip, Профессиональный (мно ...
  • Глушь / Resurrection County (Matt Zettell, ужасы, триллер, 2008) [DVDRip, П ...
  • Искажение / Skew (Сейв Челенз, ужасы, триллер, 2011) [HDRip, Профессиональн ...
  • Информация
    Посетители, находящиеся в группе Гости, не могут оставлять комментарии к данной публикации.